Snow Goose
Mutsuhiko Izumi

ADVANCED

Level: 7
BPM: 200
Notes: 503

1
口口口口 |----|
口口口口 |----|
口口口口 |----|
口口口口 |----|
2
口口口口 |①---|
口口口口 |②---|
口口口口 |③---|
④③②① |④---|
3
口口口口 |①---|
口口口口 |②---|
①②③④ |③---|
口口口口 |④---|
4
口口口口 |①---|
④③②① |②---|
口口口口 |③---|
口口口口 |④---|
5
①②③④ |①---|
口口口口 |②---|
口口口口 |③---|
口口口口 |④---|
6
④④④④ |①---|
③口口③ |②---|
口②②口 |③---|
①口口① |④---|
7
口④④口 |①---|
③口口③ |②---|
口②②口 |③---|
①口口① |④---|
8
①口口① |①---|
口②②口 |②---|
③口口③ |③---|
口④④口 |④---|
9
口④④口 |①---|
③口口③ |②---|
口②②口 |③---|
①口口① |④---|
10
①口口① |①---|
口②②口 |②---|
③口口③ |③---|
口④④口 |④---|
11
①①①① |①---|
②②②② |②---|
③③③③ |③---|
④④④④ |④---|
12
①②③口 |①-②-|
④口口④ |③-④-|
口口口口 |----|
口口口口 |----|
13
口口口口 |①-②-|
口口口口 |③-④-|
④口口④ |----|
口③②① |----|
14
①②③口 |①-②-|
④口口④ |③-④-|
口口口口 |----|
口口口口 |----|
15
⑧口口⑦ |①-②-|
口⑥⑤口 |③-④-|
④口口③ |⑤-⑥-|
口②①口 |⑦-⑧-|
16
口口口口 |①-②-|
口口口口 |③-④-|
④口口④ |----|
口③②① |----|
17
①②③口 |①-②-|
④口口④ |③-④-|
口口口口 |----|
口口口口 |----|
18
口口口口 |①-②-|
④口口④ |③-④-|
口③②① |----|
口口口口 |----|
19
⑧⑦口口 |①-②-|
⑥口⑤口 |③-④-|
口④口③ |⑤-⑥-|
口口②① |⑦-⑧-|
20
口口口口 |①---|
口③口口 |--②-|
口口②口 |----|
口口口① |③---|
21
①口口① |①---|
口口口口 |----|
口口口口 |----|
口②③口 |②-③-|
22
①口口口 |①---|
口②口口 |--②-|
口口③口 |----|
口口口口 |③---|
23
口口口口 |①---|
口口口口 |----|
口口口口 |----|
①口口① |----|
24
口口口① |①---|
口口②口 |--②-|
口③口口 |----|
口口口口 |③---|
25
口口口口 |①---|
②口口③ |----|
②口口③ |②---|
①口口① |③---|
26
①口口① |①---|
口①①口 |----|
口口口口 |----|
口口口口 |----|
27
口口口口 |①---|
口口口口 |----|
口①①口 |----|
①口口① |----|
28
①口口口 |①---|
口②口口 |--②-|
口口③口 |----|
口口口口 |③---|
29
口口口口 |①---|
口口口口 |----|
口②③口 |----|
①口口① |②-③-|
30
口口口① |①---|
口口②口 |--②-|
口③口口 |----|
口口口口 |③---|
31
①口口① |①---|
口口口口 |----|
②③④⑤ |----|
口口口口 |②③④⑤|
32
①①②② |①---|
口口口口 |--②-|
口口口口 |----|
口口口口 |----|
33
口口口口 |①---|
②②口口 |--②-|
口口口口 |----|
口口①① |----|
34
口口口口 |①---|
口口口口 |----|
口①①口 |----|
①口口① |----|
35
①口口① |①---|
口①①口 |--②-|
口②②口 |----|
②口口② |----|
36
口口口口 |①-②-|
③口②① |--③-|
口口口口 |--④-|
④⑤⑥口 |⑤-⑥-|
37
口口口口 |①---|
口口口口 |②③④⑤|
⑤④③② |----|
口口口① |----|
38
①②口③ |①-②-|
口口口口 |--③-|
口⑥⑤④ |--④-|
口口口口 |⑤-⑥-|
39
口口口口 |①---|
②③④⑤ |②③④⑤|
①口口口 |----|
口口口口 |----|
40
①②口③ |①-②-|
口口口口 |--③-|
口口口口 |--④-|
口⑥⑤④ |⑤-⑥-|
41
口口口口 |①---|
②③④⑤ |②③④⑤|
口口口口 |----|
①口口口 |----|
42
⑧⑦口口 |①-②-|
⑥口⑤口 |③-④-|
口④口③ |⑤-⑥-|
口口②① |⑦-⑧-|
43
口口口口 |①-②-|
口口口口 |③-④-|
⑤⑥⑦⑧ |⑤-⑥-|
④③②① |⑦-⑧-|
44
①②②① |①---|
口③③口 |②---|
口④④口 |③---|
口口口口 |④---|
45
①口口① |①---|
②口口② |②---|
③口口③ |③---|
④口口④ |④---|
46
口④④口 |①---|
口③③口 |②---|
口②②口 |③---|
口①①口 |④---|
47
口口口口 |①-②-|
口口口口 |③-④-|
⑧⑦⑥⑤ |⑤-⑥-|
④③②① |⑦-⑧-|
48
口②②口 |①---|
①③③① |②---|
口④④口 |③---|
口口口口 |④---|
49
口口口口 |①---|
②口口② |②---|
③口口③ |③---|
④①①④ |④---|
50
①①②② |①-②-|
口口③③ |--③-|
口口④④ |--④-|
口口⑤⑤ |--⑤-|
51
①②③④ |①-②-|
⑤⑥⑦⑧ |③-④-|
口口口口 |⑤-⑥-|
口口口口 |⑦-⑧-|
52
口口口口 |①---|
口口口口 |②---|
③①①③ |③---|
②④④② |④---|
53
口①①口 |①---|
②口口② |②---|
③口口③ |③---|
口④④口 |④---|
54
口①①口 |①---|
②③③② |②---|
④口口④ |③---|
口口口口 |④---|
55
口④④口 |①---|
口③③口 |②---|
口②②口 |③---|
①口口① |④---|
56
①口口① |①---|
②④④② |②---|
口③③口 |③---|
口口口口 |④---|
57
口④④口 |①---|
③口口③ |②---|
②口口② |③---|
①口口① |④---|
58
口口口口 |①-②-|
口①①口 |--③-|
口口口口 |--④-|
⑤④③② |--⑤-|
59
④③②① |①-②-|
⑤⑥⑦⑧ |③-④-|
口口口口 |⑤-⑥-|
口口口口 |⑦-⑧-|
60
④⑤⑥口 |①-②-|
口口口口 |--③-|
③口②① |--④-|
口口口口 |⑤-⑥-|
61
口口口① |①---|
⑤④③② |②③④⑤|
口口口口 |----|
口口口口 |----|
62
口口口口 |①-②-|
④⑤⑥口 |--③-|
口口口口 |--④-|
③口②① |⑤-⑥-|
63
口口口口 |①---|
口口口① |②③④⑤|
⑤④③② |----|
口口口口 |----|
64
①②口③ |①-②-|
口口口口 |--③-|
口口口口 |--④-|
口⑥⑤④ |⑤-⑥-|
65
口口口口 |①---|
口口口口 |②③④⑤|
②③④⑤ |----|
①口口口 |----|
66
口①②口 |①---|
①口口② |②---|
④口口③ |③---|
口④③口 |④---|
67
①口口② |①---|
口①②口 |②---|
口④③口 |③---|
④口口③ |④---|
68
口口口口 |----|
口口口口 |----|
口口口口 |----|
口口口口 |----|
69
口口口口 |----|
口口口口 |----|
口口口口 |----|
口口口口 |----|
70
口⑦⑧口 |①-②-|
⑤口口⑥ |③-④-|
口③④口 |⑤-⑥-|
①口口② |⑦-⑧-|
71
①口口② |①-②-|
口③④口 |③-④-|
⑤口口⑥ |⑤-⑥-|
口⑦⑧口 |⑦-⑧-|
72
口⑦⑧口 |①-②-|
⑤口口⑥ |③-④-|
口③④口 |⑤-⑥-|
①口口② |⑦-⑧-|
73
①口口② |①-②-|
口③④口 |③-④-|
⑤口口⑥ |⑤-⑥-|
口⑦⑧口 |⑦-⑧-|
74
口⑦⑧口 |①-②-|
⑤口口⑥ |③-④-|
口③④口 |⑤-⑥-|
①口口② |⑦-⑧-|
75
④口口④ |①---|
口③③口 |②---|
②口口② |③---|
口①①口 |④---|
76
口①①口 |①---|
②口口② |②---|
口③③口 |③---|
④口口④ |④---|
77
④口口④ |①---|
口③③口 |②---|
②口口② |③---|
口①①口 |④---|
78
口①①口 |①---|
②口口② |②---|
口③③口 |③---|
④口口④ |④---|
79
④口口④ |①---|
④③③④ |②---|
②口口② |③---|
口①①口 |④---|
80
口①②口 |----|
口③④口 |----|
口⑤⑥口 |①②③④|
口口口口 |--⑤⑥|
81
口口口口 |----|
口口口口 |①---|
口口口口 |----|
①①①① |----|


不确定度: 0

最終更新:2012年11月11日 17:50