Snow Goose
Mutsuhiko Izumi

EXTREME

Level: 8
BPM: 200
Notes: 549

1
口口口口 |----|
口口口口 |----|
口口口口 |----|
口口口口 |----|
2
口口口口 |①-②-|
口口口口 |③-④-|
⑤⑥④③ |⑤-⑥-|
⑦⑧②① |⑦-⑧-|
3
⑤⑥④③ |①-②-|
⑦⑧②① |③-④-|
口口口口 |⑤-⑥-|
口口口口 |⑦-⑧-|
4
口口口口 |①-②-|
口口口口 |③-④-|
⑤⑥④③ |⑤-⑥-|
⑦⑧②① |⑦-⑧-|
5
口②①口 |①-②-|
口④③口 |③-④-|
口⑥⑤口 |⑤-⑥-|
口⑧⑦口 |⑦-⑧-|
6
②口口① |①-②-|
④口口③ |③-④-|
⑥口口⑤ |⑤-⑥-|
⑧口口⑦ |⑦-⑧-|
7
口口④④ |①---|
口口③口 |②---|
口口②口 |③---|
口①①口 |④---|
8
④④口口 |①---|
口③口口 |②---|
口②口口 |③---|
口①①口 |④---|
9
口⑧⑦口 |①-②-|
口⑥⑤口 |③-④-|
口④③口 |⑤-⑥-|
口②①口 |⑦-⑧-|
10
口口口口 |①-②-|
口⑥⑧口 |③-④-|
④⑤⑦② |⑤-⑥-|
③口口① |⑦-⑧-|
11
①口口③ |①-②-|
②口口④ |③-④-|
口⑦⑧口 |⑤-⑥-|
口⑤⑥口 |⑦-⑧-|
12
①②③口 |①-②-|
④口口④ |③-④-|
口口口口 |----|
口口口口 |----|
13
口口口口 |①-②-|
口口口口 |③-④-|
④口口④ |----|
口③②① |----|
14
①②③口 |①-②-|
④口口④ |③-④-|
口口口口 |----|
口口口口 |----|
15
⑫⑩⑨⑪ |①-②-|
口⑧⑦口 |③-④-|
④⑥⑤③ |⑤⑥⑦⑧|
口②①口 |⑨⑩⑪⑫|
16
口口口口 |①-②-|
口口口口 |③-④-|
④口口④ |----|
口③②① |----|
17
①②③口 |①-②-|
④口口④ |③-④-|
口口口口 |----|
口口口口 |----|
18
④口口④ |①-②-|
口口口口 |③-④-|
口③②① |----|
口口口口 |----|
19
⑯⑮⑧⑦ |①②③④|
⑭⑬⑥⑤ |⑤⑥⑦⑧|
⑫⑪④③ |⑨⑩⑪⑫|
⑩⑨②① |⑬⑭⑮⑯|
20
口口口口 |①---|
口③口口 |--②-|
口口②口 |----|
口口口① |③---|
21
①口口① |①---|
口口口口 |----|
口口口口 |----|
口②③口 |②-③-|
22
口口口口 |①---|
口口③口 |--②-|
口②口口 |----|
①口口口 |③---|
23
①口口① |①---|
口口口口 |----|
口口口口 |----|
口口口口 |----|
24
口口口① |①---|
口口②口 |--②-|
口③口口 |----|
口口口口 |③---|
25
口口口口 |①---|
②口口③ |----|
②口口③ |②---|
①口口① |③---|
26
①口口① |①---|
口①①口 |----|
口①①口 |----|
口口口口 |----|
27
口口口口 |①---|
①口口① |----|
①口口① |----|
①口口① |----|
28
①口口口 |①---|
口②口口 |--②-|
口口③口 |----|
口口口口 |③---|
29
口口口口 |①---|
口口口口 |----|
口口口口 |----|
①②③① |②-③-|
30
口口口口 |①---|
口口③口 |--②-|
口②口口 |----|
①口口口 |③---|
31
①口口① |①---|
口口口口 |----|
口④⑤口 |----|
口②③口 |②③④⑤|
32
口②②口 |①---|
①口口① |--②-|
口口口口 |----|
口口口口 |----|
33
口口口口 |①---|
②口口② |--②-|
①②②① |----|
口①①口 |----|
34
口口口口 |①---|
口①①口 |----|
①口口① |----|
口口口口 |----|
35
①①①① |①---|
口①①口 |--②-|
口②②口 |----|
②口口② |----|
36
口口口口 |①-②-|
③⑥②① |--③-|
口⑤口口 |--④-|
口④口口 |⑤-⑥-|
37
口①口口 |①---|
口口口口 |②③④⑤|
口口④⑤ |----|
口口②③ |----|
38
①②口③ |①-②-|
口口⑥口 |--③-|
口口⑤口 |--④-|
口口④口 |⑤-⑥-|
39
口口①口 |①---|
口口口口 |②③④⑤|
⑤④口口 |----|
③②口口 |----|
40
口口口口 |①-②-|
③⑥②① |--③-|
口⑤口口 |--④-|
口④口口 |⑤-⑥-|
41
口①口口 |①---|
口口口口 |②③④⑤|
口口⑤④ |----|
口口③② |----|
42
⑫⑪⑯⑮ |①②③④|
⑩⑨⑭⑬ |⑤⑥⑦⑧|
④③⑧⑦ |⑨⑩⑪⑫|
②①⑥⑤ |⑬⑭⑮⑯|
43
⑫⑪⑯⑮ |①②③④|
⑩⑨⑭⑬ |⑤⑥⑦⑧|
④③⑧⑦ |⑨⑩⑪⑫|
②①⑥⑤ |⑬⑭⑮⑯|
44
口口口口 |①---|
口③口口 |②---|
②口④口 |③---|
口①口口 |④---|
45
①口口① |①---|
②口口② |②---|
③口口③ |③---|
④口口④ |④---|
46
口④④口 |①---|
口③③口 |②---|
口②②口 |③---|
口①①口 |④---|
47
②口口① |①-②-|
④口口③ |③-④-|
⑥口口⑤ |⑤-⑥-|
⑧口口⑦ |⑦-⑧-|
48
口②②口 |①---|
口③③口 |②---|
口④④口 |③---|
口①①口 |④---|
49
④口口④ |①---|
③口口③ |②---|
②口口② |③---|
口①①口 |④---|
50
⑤①①⑤ |①-②-|
⑤口口⑤ |--③-|
④②②③ |--④-|
④口口③ |--⑤-|
51
口⑧⑦口 |①-②-|
口⑥⑤口 |③-④-|
口④③口 |⑤-⑥-|
口②①口 |⑦-⑧-|
52
①口口① |①---|
③口口② |②-③-|
⑤口口④ |④-⑤-|
⑦口口⑥ |⑥-⑦-|
53
口①①口 |①---|
口③②口 |②-③-|
口⑤④口 |④-⑤-|
口⑦⑥口 |⑥-⑦-|
54
②口口② |①---|
③口口③ |②---|
④口口④ |③---|
①口口① |④---|
55
⑩②①⑨ |①②③④|
⑫④③⑪ |⑤⑥⑦⑧|
⑭⑥⑤⑬ |⑨⑩⑪⑫|
⑯⑧⑦⑮ |⑬⑭⑮⑯|
56
口口①口 |①---|
口②口④ |②---|
口口③口 |③---|
口口口口 |④---|
57
口口口口 |①---|
口③口口 |②---|
②口④口 |③---|
口①口口 |④---|
58
口③口④ |①-②-|
口口①口 |--③-|
口①口口 |--④-|
⑤口②口 |--⑤-|
59
口⑦⑧口 |①-②-|
口⑤⑥口 |③-④-|
口③④口 |⑤-⑥-|
口①②口 |⑦-⑧-|
60
口口口口 |①-②-|
口⑥口口 |--③-|
口⑤口口 |--④-|
③④②① |⑤-⑥-|
61
口①口口 |①---|
口口口口 |②③④⑤|
口口⑤④ |----|
口口③② |----|
62
口口口口 |①-②-|
①②⑥③ |--③-|
口口⑤口 |--④-|
口口④口 |⑤-⑥-|
63
④⑤①口 |①---|
②③口口 |②③④⑤|
口口口口 |----|
口口口口 |----|
64
口口口口 |①-②-|
口⑥口口 |--③-|
③⑤②① |--④-|
口④口口 |⑤-⑥-|
65
口①口口 |①---|
口口⑤④ |②③④⑤|
口口③② |----|
口口口口 |----|
66
口③④口 |①---|
③口口④ |②---|
①口口② |③---|
口①②口 |④---|
67
①口口② |①---|
口①②口 |②---|
口③④口 |③---|
③口口④ |④---|
68
口口口口 |----|
口口口口 |----|
口口口口 |----|
口口口口 |----|
69
口口口口 |----|
口口口口 |----|
口口口口 |----|
口口口口 |----|
70
口⑦⑧口 |①-②-|
⑤口口⑥ |③-④-|
口③④口 |⑤-⑥-|
①口口② |⑦-⑧-|
71
①口口② |①-②-|
口③④口 |③-④-|
⑤口口⑥ |⑤-⑥-|
口⑦⑧口 |⑦-⑧-|
72
口⑦⑧口 |①-②-|
⑤口口⑥ |③-④-|
口③④口 |⑤-⑥-|
①口口② |⑦-⑧-|
73
⑦口口⑧ |①-②-|
⑤口口⑥ |③-④-|
③口口④ |⑤-⑥-|
①口口② |⑦-⑧-|
74
口⑦⑧口 |①-②-|
口⑤⑥口 |③-④-|
口③④口 |⑤-⑥-|
口①②口 |⑦-⑧-|
75
口口口口 |①-②-|
口口口口 |③-④-|
⑦⑧⑥⑤ |⑤-⑥-|
③④②① |⑦-⑧-|
76
⑦⑧⑥⑤ |①-②-|
③④②① |③-④-|
口口口口 |⑤-⑥-|
口口口口 |⑦-⑧-|
77
口口口口 |①-②-|
口口口口 |③-④-|
④⑧⑥② |⑤-⑥-|
③⑦⑤① |⑦-⑧-|
78
④⑧⑥② |①-②-|
③⑦⑤① |③-④-|
口口口口 |⑤-⑥-|
口口口口 |⑦-⑧-|
79
口口口口 |①-②-|
口口口口 |③-④-|
⑧⑦④③ |⑤-⑥-|
⑥⑤②① |⑦-⑧-|
80
③②④⑤ |①---|
①①①① |----|
口口口口 |②③④⑤|
⑦⑥⑥⑦ |--⑥⑦|
81
口口口口 |----|
①①①① |①---|
①①①① |----|
口口口口 |----|


不确定度: 0

最終更新:2012年11月11日 17:49