Slang
Kozo Nakamura

BASIC

Level: 4
BPM: 160
Notes: 316

1
口口口口 |----|
口口口口 |----|
口口口口 |----|
口口口口 |----|
2
①口口① |①---|
口②口口 |②---|
口口③口 |③---|
口④口口 |④---|
3
①口口① |①---|
口④口② |②---|
口口③口 |③---|
口口口口 |④---|
4
口口口口 |①---|
②口口口 |②---|
①③口口 |③---|
口口④口 |④---|
5
①口口① |①---|
②口④口 |②---|
口③口口 |③---|
口口口口 |④---|
6
口口口口 |①---|
口口口② |②---|
口口③① |③---|
口④口口 |④---|
7
①口口① |①---|
口口②口 |②---|
口③④口 |③---|
口口口口 |④---|
8
口口口口 |①---|
②口口口 |②---|
口③口口 |③---|
口①④口 |④---|
9
①口口① |①---|
②口④口 |②---|
口③口口 |③---|
口口口口 |④---|
10
口口口口 |①---|
口口口② |②---|
口口③① |③---|
口④口口 |④---|
11
口③④口 |①---|
②口口② |②---|
①口口① |③-④-|
口口口口 |----|
12
口④④口 |①---|
口口③口 |②---|
口②口口 |③---|
口①①口 |④---|
13
口口口口 |①---|
②口口② |②---|
①口口①
口口口口

口③④口
口口口口
⑤口口口 |③-④-|
口口口口 |--⑤-|
14
口口口口 |--①-|
口④口③ |-②--|
口①②口 |③---|
口口口口 |④---|
15
口①①口 |①---|
口口口口 |②---|
口口口口
口②②口

口⑤⑤口
口③口口
口口④口 |③-④-|
口口口口 |--⑤-|
16
口口口口 |----|
口口①口 |①---|
口②口口 |②---|
口③③口 |③---|
17
口①口口 |①---|
口口②口 |②---|
口③口口 |③---|
口口④口 |④---|
18
口口口口 |①---|
②口口② |②---|
①口口① |----|
口口口口 |----|
19
口①口口 |①---|
口口②口 |②---|
口③口口 |③---|
口⑤④口 |④-⑤-|
20
口口口口 |----|
口②口口 |①---|
①口③口 |②---|
口口口口 |③---|
21
口口①口 |①---|
口②口口 |②---|
口口③口 |③---|
口④⑤口 |④-⑤-|
22
口口口口 |----|
口口②口 |①---|
口③口① |②---|
口口口口 |③---|
23
口①①口 |①---|
口口②口 |②---|
口③口口 |③---|
口⑤④口 |④-⑤-|
24
口口口口 |----|
口①口口 |----|
口口②口 |①---|
口口口口 |②---|
25
口⑤④口 |①---|
②③口② |②---|
①口口① |③---|
口口口口 |④-⑤-|
26
口口口口 |----|
口口①口 |----|
口②口口 |①---|
口口口口 |②---|
27
①口口② |①--②|
③口口④ |--③-|
⑤口口口 |-④--|
口口口口 |⑤---|
28
口口口口 |①---|
口口口口 |----|
口口口① |②---|
口②②口 |----|
29
口①口口 |①---|
口口②口 |②---|
口③④口 |③-④-|
口口口口 |----|
30
口①①口 |①---|
口②②口 |②---|
口③③口 |③-④-|
口④④口 |----|
31
口口②② |①---|
口①口口 |②---|
口口口口 |----|
口口口口 |----|
32
口口口口 |①---|
口口②② |--②-|
口①口口 |----|
口口口口 |----|
33
口口口口 |①---|
口口③口 |②---|
口④口② |③---|
口口①① |④---|
34
②②口口 |①---|
①口口口 |②---|
口口口口 |----|
口口口口 |----|
35
口③②① |①--②|
④⑤⑥口 |--③-|
口口口口 |④--⑤|
口口口口 |--⑥-|
36
口口口口 |①--②|
口口口口 |--③-|
口③②① |④--⑤|
④⑤⑥口 |--⑥-|
37
口③②① |①--②|
④⑤⑥口 |--③-|
口口口口 |④--⑤|
口口口口 |--⑥-|
38
口口口口 |①---|
口口口口 |②---|
口③口① |③---|
④口②口 |④---|
39
①口口口 |①---|
口②口口 |②---|
口④③口 |③-④-|
口口口口 |----|
40
口口口口 |①---|
口②口④ |②---|
①口③口 |③---|
口口口口 |④---|
41
口口口① |①---|
口口②口 |②---|
口③④口 |③-④-|
口口口口 |----|
42
口口口口 |①---|
口口②口 |②---|
口③口① |③---|
口口口口 |----|
43
①口口口 |①---|
口②口口 |②---|
口④③口 |③-④-|
口口口口 |----|
44
口口口口 |①---|
口②口④ |②---|
①口③口 |③---|
口口口口 |④---|
45
口口口① |①---|
口口②口 |②---|
口③④口 |③-④-|
口口口口 |----|
46
口口口口 |①---|
口口口口 |②---|
口③口① |③---|
口口②口 |----|
47
口口口口 |①---|
口口①① |--②-|
②②口口 |----|
口口③③ |③---|
48
口口口口 |--①-|
①①口口 |----|
③口口② |②---|
口口口口 |③---|
49
口口口④ |①---|
③口口② |②---|
口①①口 |③---|
口口口口 |④---|
50
①②②口 |①---|
口口口口 |②---|
口口口口 |----|
口口口口 |----|
51
口口口口 |①--②|
口口口口 |--③-|
④口口口 |----|
口③②① |④---|
52
口口口④ |①--②|
①②③口 |--③-|
口口口口 |----|
口口口口 |④---|
53
①口口口 |①---|
口②口口 |②---|
③口口口 |③---|
口④口口 |④---|
54
口口①口 |①---|
口口口② |②---|
口口③口 |③---|
口口口④ |④---|
55
①口口口 |①---|
口②口口 |②---|
③口口口 |③---|
口④口口 |④---|
56
口口①口 |①---|
口口口② |②---|
口口③口 |③---|
口口口④ |④---|
57
②口口① |①---|
④口口③ |②---|
口口口口 |③---|
口口口口 |④---|
58
口④④口 |①---|
口③③口 |②---|
口口①口 |③--④|
口②口口 |----|
59
①口口口 |①---|
口口口② |②---|
③口口口 |③---|
口口口④ |④---|
60
口口口① |①---|
②口口口 |②---|
口口口③ |③---|
口口口口 |----|
61
口口口口 |①---|
口③口口 |②---|
②口④口 |③-④-|
口①口口 |----|
62
口④⑤口 |①---②-|
③口口⑥ |--③---|
②口口口 |④---⑤-|
口①口口 |--⑥---|
63
口口口口 |①---②-|
④口口口 |--③---|
口③③① |----|
口口②口 |④---|
64
口口①口 |①---|
口④口② |②---|
口口③口 |③---|
口口口口 |④---|
65
口口口口 |①---|
②口口口 |②---|
①③口口 |③---|
口口④口 |④---|
66
口①口口 |①---|
②口④口 |②---|
口③口口 |③---|
口口口口 |④---|
67
口口口口 |①---|
口口口② |②---|
口口③① |③---|
口④口口 |④---|
68
口①①口 |①---|
口④口② |②---|
口口③口 |③---|
口口口口 |④---|
69
口口口口 |①---|
②口口口 |②---|
①③口口 |③---|
口口④口 |④---|
70
①口口口 |①---|
口口口② |②---|
③口口口 |③---|
口口口④ |④---|
71
口④④口 |①--②|
口③③口 |--③-|
口②②口 |-④--|
口①①口 |----|
72
口口口口 |----|
口口口口 |----|
口口口口 |----|
口口口口 |----|
73
口口口口 |①---|
①口口① |----|
口口口口 |----|
口口口口 |----|


不确定度: 0

最終更新:2012年11月11日 17:48