Slang
Kozo Nakamura

ADVANCED

Level: 7
BPM: 160
Notes: 489

1
口口口口 |----|
口口口口 |----|
口口口口 |----|
口口口口 |----|
2
①口④① |①---|
口⑤口② |②-③-|
③口⑥口 |④-⑤-|
口⑦口口 |⑥-⑦-|
3
①①口口 |①---|
口⑤③口 |②-③-|
④②⑥口 |--④-|
口口口口 |⑤-⑥-|
4
口④口口 |①---|
②口⑤① |②-③-|
口⑥口③ |④-⑤-|
口口⑦口 |⑥-⑦-|
5
口口①① |①---|
口③⑤口 |②-③-|
口⑥②④ |--④-|
口口口口 |⑤-⑥-|
6
口口④口 |①---|
①⑤口② |②-③-|
③口⑥口 |④-⑤-|
口⑦口口 |⑥-⑦-|
7
①①口⑥ |①---|
口口③口 |②-③-|
口②⑤口 |--④-|
④口口口 |⑤-⑥-|
8
口③口口 |----|
①口④口 |①-②-|
口⑤口② |③-④-|
口口⑥口 |⑤-⑥-|
9
口口①① |①---|
口③⑤口 |②-③-|
口⑥②④ |--④-|
口口口口 |⑤-⑥-|
10
口口④口 |①---|
①⑤口② |②-③-|
③口⑥口 |④-⑤-|
口⑦口口 |⑥-⑦-|
11
①①口口 |①---|
口口④口 |②---|
⑤③口口 |③-④-|
口口②② |--⑤-|
12
口口⑤⑤ |--①-|
口①口③ |②-③-|
口④②口 |--④-|
口口口口 |⑤---|
13
①①口口 |①---|
口口②② |②---|
口口口口
口口口口

⑤⑤口口
口口口口
口③口口 |③-④-|
口口④④ |--⑤-|
14
口口口口 |--①-|
①①⑤⑤ |-②--|
②②④④ |③-④-|
口口③③ |⑤---|
15
⑤⑤①① |①---|
口口③口 |②---|
口④口口 |③-④-|
②②口口 |--⑤-|
16
口口①口 |--①-|
口②口④ |②-③-|
③口⑤口 |④-⑤-|
口口⑥⑥ |⑥---|
17
⑤口口① |①-②-|
口②⑥口 |③-④-|
⑦口口③ |⑤-⑥-|
口④⑧口 |⑦-⑧-|
18
口②②口 |①---|
口口口口 |②---|
口①①口 |--③-|
口口口③ |----|
19
①口口② |①---|
口③④口 |②---|
口⑤口口 |③-④-|
口口⑥⑥ |⑤-⑥-|
20
口口①口 |--①-|
②口口③ |-②--|
口口④口 |③-④-|
口⑤口口 |⑤---|
21
①口口② |①---|
口④③口 |②-③-|
口口⑤口 |-④-⑤|
⑥⑥口口 |--⑥-|
22
口①口口 |--①-|
③口口② |-②--|
口④口口 |③-④-|
口口⑤口 |⑤---|
23
②口①① |①---|
⑥口④口 |②---|
口⑤口③ |③-④-|
口口口口 |⑤-⑥-|
24
口口口口 |----|
口口口① |----|
口口②口 |①-②-|
口③口口 |③---|
25
①①②② |①---|
口口口⑥ |②---|
③口⑤口 |③-④-|
口④口口 |⑤-⑥-|
26
口②口口 |----|
口口③口 |--①-|
口④口口 |②-③-|
口口⑤① |④-⑤-|
27
①口口① |①--②|
②口口② |--③-|
③口口③ |-④--|
④⑤⑤④ |⑤---|
28
④③口④ |①-②-|
口口②口 |③---|
口①①口 |④---|
口口口口 |----|
29
口口口口 |①---|
①口④口 |②---|
口③口口 |③-④-|
口口②② |----|
30
口①口口 |①-②-|
口⑤⑤② |③-④-|
③⑥⑥口 |⑤-⑥-|
口口④口 |----|
31
口口②② |①---|
口口口口 |②---|
口口口口 |----|
①①口口 |----|
32
口口口口 |①-②-|
①口③③ |--③-|
口②口口 |----|
口口口口 |----|
33
口①①④ |①-②-|
⑤口②⑥ |③-④-|
⑦③口⑧ |⑤-⑥-|
口口口口 |⑦-⑧-|
34
口口口口 |①---|
口口口口 |②---|
口口口口 |----|
①②②口 |----|
35
①②③口 |①--②|
②口口⑥ |--③-|
③口口⑤ |④--⑤|
口⑥⑤④ |--⑥-|
36
①②③口 |①--②|
②口口⑥ |--③-|
③口口⑤ |④--⑤|
口⑥⑤④ |--⑥-|
37
①②③口 |①--②|
②口口⑥ |--③-|
③口口⑤ |④--⑤|
口⑥⑤④ |--⑥-|
38
口⑤口口 |①-②-|
口①②⑥ |③-④-|
⑦③④口 |⑤-⑥-|
口口⑧口 |⑦-⑧-|
39
①口口口 |①-②-|
口②⑤⑤ |③---|
⑥口③口 |④-⑤-|
④④口口 |--⑥-|
40
口口②口 |--①-|
口①口口 |②-③-|
口口③口 |--④-|
口口口④ |----|
41
口口口① |①-②-|
⑤⑤②口 |③---|
口③口⑥ |④-⑤-|
口口④④ |--⑥-|
42
口口口口 |--①-|
⑤③①口 |②-③-|
口④②口 |④-⑤-|
口口口口 |----|
43
①口口口 |①-②-|
口②⑤⑤ |③---|
⑥口③口 |④-⑤-|
④④口口 |--⑥-|
44
口口口口 |--①-|
口①③⑤ |②-③-|
口②④⑥ |④-⑤-|
口口口口 |⑥---|
45
口口口① |①-②-|
⑤⑤②⑥ |③---|
口③口口 |④-⑤-|
口口④④ |--⑥-|
46
口口口口 |--①-|
④口②口 |②-③-|
⑤③口① |④-⑤-|
口口口口 |----|
47
口口口口 |①---|
②②口口 |--②-|
口口口口 |----|
③③①① |③---|
48
②③⑤④ |--①-|
口口①① |----|
口口口口 |②-③-|
口口口口 |④-⑤-|
49
口口口口 |①-②-|
①⑦③⑤ |③-④-|
⑧②⑥④ |⑤-⑥-|
口口口口 |⑦-⑧-|
50
口口②② |①---|
口口口口 |②---|
口口口口 |----|
口①口口 |----|
51
①①口口 |①--②|
④②②口 |--③-|
③③口口 |----|
口口⑤口 |④-⑤-|
52
口口①① |①--②|
口②②④ |--③-|
口口③③ |----|
口⑤口口 |④-⑤-|
53
①②口口 |①-②-|
④③口口 |③-④-|
⑤⑥口口 |⑤-⑥-|
⑧⑦口口 |⑦-⑧-|
54
口口①② |①-②-|
口口④③ |③-④-|
口口⑤⑥ |⑤-⑥-|
口口⑧⑦ |⑦-⑧-|
55
①②口口 |①-②-|
④③口口 |③-④-|
⑤⑥口口 |⑤-⑥-|
⑧⑦口口 |⑦-⑧-|
56
口口①② |①-②-|
口口④③ |③-④-|
口口⑤⑥ |⑤-⑥-|
口口⑧⑦ |⑦-⑧-|
57
②口口① |①-②-|
④口口③ |③-④-|
⑥口口⑤ |⑤-⑥-|
⑧口口⑦ |⑦-⑧-|
58
口①②口 |①-②-|
口③④口 |③-④-|
⑤⑤口口 |⑤--⑥|
口口⑥⑥ |----|
59
①口②口 |①-②-|
③口④口 |③-④-|
⑤口⑥口 |⑤-⑥-|
⑦口⑧口 |⑦-⑧-|
60
口②口① |①-②-|
口④口③ |③-④-|
口⑥口⑤ |⑤-⑥-|
口口⑦口 |---⑦|
61
口口①口 |----|
口②口口 |①-②-|
口口③口 |③-④-|
口④口口 |----|
62
①①口口 |①---②-|
⑥口②口 |--③---|
口⑤口③ |④---⑤-|
口口④④ |--⑥---|
63
口①①口 |①---②-|
口口口口 |--③---|
④口口② |----|
口③③口 |④---|
64
①口口口 |①---|
口⑤③口 |②-③-|
④②⑥口 |--④-|
口口口口 |⑤-⑥-|
65
口④口口 |①---|
②口⑤① |②-③-|
口⑥口③ |④-⑤-|
口口⑦口 |⑥-⑦-|
66
口口口① |①---|
口③⑤口 |②-③-|
口⑥②④ |--④-|
口口口口 |⑤-⑥-|
67
口口④口 |①---|
①⑤口② |②-③-|
③口⑥口 |④-⑤-|
口⑦口口 |⑥-⑦-|
68
①①口口 |①---|
口⑤③口 |②-③-|
④②⑥口 |--④-|
口口口口 |⑤-⑥-|
69
口④口口 |①---|
②口⑤① |②-③-|
口⑥口③ |④-⑤-|
口口⑦口 |⑥-⑦-|
70
①口口⑤ |①-②-|
②口口⑥ |③-④-|
⑧口口④ |⑤-⑥-|
⑦口口③ |⑦-⑧-|
71
口④④口 |①--②|
口③③口 |--③-|
口②②口 |-④--|
口①①口 |----|
72
口口口口 |----|
口口口口 |----|
口口口口 |----|
口口口口 |----|
73
口口口口 |①②--|
①口口① |----|
②口口② |----|
口口口口 |----|


不确定度: 0

最終更新:2012年11月11日 17:48