Slang
Kozo Nakamura

EXTREME

Level: 9
BPM: 160
Notes: 675

1
口口口口 |----|
口口口口 |----|
口口口口 |----|
口口口口 |----|
2
⑧口②④ |①---|
⑨③口⑤ |②-③-|
⑩口口⑥ |④⑤⑥⑦|
⑪①①⑦ |⑧⑨⑩⑪|
3
④口口口 |①---|
口口③⑤ |②-③-|
⑥②口口 |--④-|
口①①口 |⑤-⑥-|
4
口②口口 |①---|
口口③口 |②-③-|
口口口口
口口口①

④口口⑧
⑤口口⑨
⑥口口⑩ |④⑤⑥⑦|
⑦口口⑪ |⑧⑨⑩⑪|
5
口口口④ |①---|
⑤③口口 |②-③-|
口口②⑥ |--④-|
口①①口 |⑤-⑥-|
6
口口②口 |①---|
口③口口 |②-③-|
口口口口
①口口口

⑧口口④
⑨口口⑤
⑩口口⑥ |④⑤⑥⑦|
⑪口口⑦ |⑧⑨⑩⑪|
7
⑥口口口 |①---|
口口③⑤ |②-③-|
④②口口 |--④-|
口①①口 |⑤-⑥-|
8
⑦口①③ |----|
⑧②口④ |①-②-|
⑨口口⑤ |③④⑤⑥|
⑩口口⑥ |⑦⑧⑨⑩|
9
④口口口 |①---|
口口③⑤ |②-③-|
⑥②口口 |--④-|
口①①口 |⑤-⑥-|
10
口②口口 |①---|
口口③口 |②-③-|
口口口口
口口口①

④口口⑧
⑤口口⑨
⑥口口⑩ |④⑤⑥⑦|
⑦口口⑪ |⑧⑨⑩⑪|
11
口②②口 |①---|
口口口口 |②---|
口口口口
口①①口

口口口口
口口口④
③口口口 |③-④-|
口⑤⑤口 |--⑤-|
12
口口口① |--①②|
④⑥②口 |③-④-|
口③⑤口 |--⑤-|
口口口口 |⑥---|
13
②②①① |①---|
口口③口 |②-③④|
口④口口
口口口口

口口⑦⑦
口口口口
口口口口 |⑤-⑥-|
⑤口⑥⑥ |--⑦-|
14
口口口口 |--①-|
③口①① |-②--|
⑥④②② |③④⑤-|
口⑦⑤口 |⑥⑦--|
15
①①②② |①---|
口③口口 |②--③|
口口④口 |④-⑤-|
⑤口⑥⑥ |--⑥-|
16
①口口口 |--①-|
②口④口 |②-③-|
口③口⑤ |④-⑤-|
口口口⑥ |⑥---|
17
⑨①⑤⑬ |①②③④|
⑩②⑥⑭ |⑤⑥⑦⑧|
⑪③⑦⑮ |⑨⑩⑪⑫|
⑫④⑧⑯ |⑬⑭⑮⑯|
18
③口口口 |①---|
口①口口 |②---|
口口口口 |--③-|
口②②口 |----|
19
口③口① |①---|
口口口④ |②---|
⑤口口口 |③-④-|
②⑥⑥口 |⑤-⑥-|
20
口口口口 |--①-|
①口②③ |-②③④|
⑦⑥⑤④ |⑤⑥⑦⑧|
⑧⑨⑩口 |⑨⑩--|
21
口④①口 |①---|
②口⑤口 |②-③-|
口③口⑥ |-④⑤⑥|
口⑦⑦口 |--⑦-|
22
口口口口 |--①-|
③②口① |-②③④|
④⑤⑥⑦ |⑤⑥⑦⑧|
口⑩⑨⑧ |⑨⑩--|
23
口口①① |①---|
口⑤口③ |②---|
⑥口④口 |③-④-|
②口口口 |⑤-⑥-|
24
⑥口口口 |----|
⑤口③口 |----|
口④口② |①②③④|
口口口① |⑤⑥--|
25
口①①口 |①---|
口口口口 |②---|
口口口口
口②②口

⑥⑥口口
口口⑤口
口④口口 |③-④-|
③口口口 |⑤-⑥-|
26
口口②⑥ |----|
口口③⑦ |--①-|
口口④⑧ |②③④⑤|
口①⑤⑨ |⑥⑦⑧⑨|
27
①①口口 |①--②|
②②④④ |--③-|
③③⑤⑤ |-④--|
口口口口 |⑤---|
28
⑤口③口 |①-②-|
口⑥⑥④ |③④-⑤|
②口口口 |⑥---|
口①①口 |----|
29
口口①口 |①---|
口④口口 |②---|
口口③口 |③-④-|
口②②口 |----|
30
口口①口 |①-②③|
②⑧⑧⑦ |④⑤⑥⑦|
③⑨⑨⑥ |⑧-⑨-|
口④⑤口 |----|
31
口①①口 |①---|
口口口口 |②---|
口口口口 |----|
口②②口 |----|
32
口口口口 |①-②-|
①口口口 |--③-|
口口口② |----|
口③③口 |----|
33
②③④⑤ |①-②③|
⑥⑦⑧① |④⑤⑥⑦|
⑨⑩⑪① |⑧-⑨⑩|
⑫⑬口口 |⑪-⑫⑬|
34
口口口口 |①---|
口口口② |②---|
口口口② |----|
口口①口 |----|
35
①⑥⑤④ |①--②|
②口口③ |--③-|
③口口② |④--⑤|
④⑤⑥① |--⑥-|
36
①⑥⑤④ |①--②|
②口口③ |--③-|
③口口② |④--⑤|
④⑤⑥① |--⑥-|
37
①⑥⑤④ |①--②|
②口口③ |--③-|
③口口② |④--⑤|
④⑤⑥① |--⑥-|
38
②口口④ |①-②-|
口①③口 |③-④-|
口③①口
④口口②

口口口口
⑥⑦口⑤
⑤口⑦⑥ |⑤-⑥-|
口⑧⑧口 |⑦-⑧-|
39
①②③④ |①②③④|
⑥⑥口⑤ |⑤---|
口口⑦⑦ |⑥-⑦-|
⑧口口口 |--⑧-|
40
口口口口 |--①-|
口口②口 |②-③-|
口①口④ |--④-|
口口③口 |----|
41
④③②① |①②③④|
⑤口⑥⑥ |⑤---|
⑦⑦口口 |⑥-⑦-|
口口口⑧ |--⑧-|
42
口口口口 |--①-|
口⑤口口 |②-③-|
⑥口③① |④-⑤⑥|
口④②口 |----|
43
①②③④ |①②③④|
⑥⑥口⑤ |⑤---|
口口⑦⑦ |⑥-⑦-|
⑧口口口 |--⑧-|
44
口口口口 |--①-|
口口⑤⑥ |②-③-|
①③口口 |④-⑤-|
口②④口 |⑥---|
45
④③②① |①②③④|
⑤口⑥⑥ |⑤---|
⑦⑦口口 |⑥-⑦-|
口口口⑧ |--⑧-|
46
⑦口⑥口 |--①②|
口⑤口③ |③-④⑤|
④口②口 |⑥-⑦-|
口①口口 |----|
47
②②口口 |①---|
口口口口 |--②-|
口口口口 |----|
③③①① |③---|
48
⑧⑨①① |--①-|
②③④口 |----|
⑦⑥⑤口 |②-③-④-⑤--⑥--|
口口口口 |⑦-⑧⑨|
49
口口①② |①②③④|
口⑬⑫③ |⑤-⑥⑦|
⑨⑩⑪④ |⑧-⑨⑩|
⑧⑦⑥⑤ |⑪-⑫⑬|
50
口②②口 |①---|
①口口口 |②---|
口口口口 |----|
口口口口 |----|
51
④⑤⑥⑦ |①--②|
口③②① |--③-|
口③②① |----|
口口口口 |④⑤⑥⑦|
52
口口口口 |①--②|
①②③口 |--③-|
①②③口 |----|
⑦⑥⑤④ |④⑤⑥⑦|
53
①②③④ |①②③④|
⑧⑦⑥⑤ |⑤⑥⑦⑧|
⑨⑩⑪⑫ |⑨⑩⑪⑫|
⑯⑮⑭⑬ |⑬⑭⑮⑯|
54
①②③④ |①②③④|
⑧⑦⑥⑤ |⑤⑥⑦⑧|
⑨⑩⑪⑫ |⑨⑩⑪⑫|
⑯⑮⑭⑬ |⑬⑭⑮⑯|
55
①②③④ |①②③④|
⑧⑦⑥⑤ |⑤⑥⑦⑧|
⑨⑩⑪⑫ |⑨⑩⑪⑫|
⑯⑮⑭⑬ |⑬⑭⑮⑯|
56
①②③④ |①②③④|
⑧⑦⑥⑤ |⑤⑥⑦⑧|
⑨⑩⑪⑫ |⑨⑩⑪⑫|
⑯⑮⑭⑬ |⑬⑭⑮⑯|
57
④③②① |①②③④|
⑧⑦⑥⑤ |⑤⑥⑦⑧|
⑫⑪⑩⑨ |⑨⑩⑪⑫|
口⑮⑭⑬ |⑬⑭⑮-|
58
①②③④ |①②③④|
⑤⑥⑦⑧ |⑤⑥⑦⑧|
口⑨⑨口 |⑨--⑩|
口⑩⑩口 |----|
59
①②⑨⑩ |①②③④|
③④⑪⑫ |⑤⑥⑦⑧|
⑤⑥⑬口 |⑨⑩⑪⑫|
⑦⑧⑭⑮ |⑬-⑭⑮|
60
①②⑨⑩ |①②③④|
③④⑪⑫ |⑤⑥⑦⑧|
⑤⑥口⑬ |⑨⑩⑪⑫|
⑦⑧口口 |---⑬|
61
口①口口 |----|
②口口口 |①-②③|
口③口口 |④-⑤-|
⑤口④口 |----|
62
⑥⑥①① |①---②-|
⑤口口② |--③---|
⑤口口② |④---⑤-|
④④③③ |--⑥---|
63
口口口口 |①---②-|
口①①口 |--③---|
口②②口
口③③口

口口口口
口⑤口口
口口口④ |----④-|
口口口口 |⑤---|
64
口口④口 |①---|
①口③⑤ |②-③-|
⑥②口口 |--④-|
口⑦口口 |⑤-⑥⑦|
65
④⑤⑥⑦ |①---|
②口口口 |②-③-|
口③①口 |④⑤⑥⑦|
⑪⑩⑨⑧ |⑧⑨⑩⑪|
66
口口④口 |①---|
①口③⑤ |②-③-|
⑥②口口 |--④-|
口⑦口口 |⑤-⑥⑦|
67
④⑤⑥⑦ |①---|
②口口口 |②-③-|
口③①口 |④⑤⑥⑦|
⑪⑩⑨⑧ |⑧⑨⑩⑪|
68
口口口口 |①---|
①口③口 |②-③-|
①②口口
口口口口

口口④口
口口口⑤
⑥口口口 |--④-|
口⑦口口 |⑤-⑥⑦|
69
④⑤⑥⑦ |①---|
②口口口 |②-③-|
口③①口 |④⑤⑥⑦|
⑪⑩⑨⑧ |⑧⑨⑩⑪|
70
⑨⑩⑪⑫ |①②③④|
⑧②⑥④ |⑤⑥⑦⑧|
①⑦③⑤ |⑨⑩⑪⑫|
⑯⑮⑭⑬ |⑬⑭⑮⑯|
71
口③③口 |①--②|
②口口① |--③-|
②④④① |-④--|
口口口口 |----|
72
口口口口 |----|
口口口口 |----|
口口口口 |----|
口口口口 |----|
73
①口口① |①②③④|
②口口② |----|
③口口③ |----|
④口口④ |----|


不確定度: 0

最終更新:2013年12月04日 16:57