NIGHT FLIGHT
小野秀幸

EXTREME

Level: 9
BPM: 180
Notes: 716

1
口口口口 |----|
口口口口 |----|
口口口口 |----|
口口口口 |----|
2
口③口⑨ |①-②-|
⑥⑧口⑤ |③-④⑤|
口⑩⑪② |⑥⑦⑧-|
口④⑦① |⑨-⑩⑪|
3
口④③口 |①-②-|
口口⑤口 |③-④⑤|
②口口口
①口口口

⑧口口⑦
⑩⑥口⑨
⑫口口⑪ |⑥-⑦⑧|
口口口口 |⑨⑩⑪⑫|
4
口③③口 |①---|
口②口口 |--②-|
口②①口 |----|
口口①口 |③---|
5
口口口口 |①---|
②③③① |--②-|
②口口① |----|
①口口② |③---|
6
②③③① |①---|
②口口① |--②-|
口口口口 |----|
①口口② |③---|
7
②口口① |①---|
②③③① |--②-|
口口口口 |----|
①①②② |③---|
8
口口①① |①---|
③口口③ |--②-|
③口口③ |----|
①①②② |③---|
9
③①①③ |①---|
口口口口 |--②-|
③①①③ |----|
②②口口 |③---|
10
③①①③ |①---|
③①①③ |--②-|
口口②口 |----|
口②口口 |③---|
11
口③口口 |①---|
口②①口 |--②-|
①口口② |----|
①口③② |③---|
12
⑤口①④ |①-②-|
口③④① |③-④-|
口⑥⑧⑦ |⑤-⑥-|
②口⑦⑧ |⑦-⑧-|
13
⑧①口④ |①-②-|
①⑦④② |③-④-|
口口⑦⑥ |⑤-⑥-|
③⑤口⑧ |⑦-⑧-|
14
口③①④ |①-②-|
⑤口④① |③-④-|
②口⑦⑧ |⑤-⑥-|
口⑥⑧⑦ |⑦-⑧-|
15
①⑦口④ |①-②-|
⑦①④② |③-④-|
⑤口口⑧ |⑤-⑥-|
③口⑧⑥ |⑦-⑧-|
16
⑤口①④ |①-②-|
口③④① |③-④-|
口⑥⑧⑦ |⑤-⑥-|
②口⑦⑧ |⑦-⑧-|
17
⑧①口④ |①-②-|
①⑦④② |③-④-|
口口⑦⑥ |⑤-⑥-|
③⑤口⑧ |⑦-⑧-|
18
⑧③①④ |①-②-|
⑤⑦④① |③-④-|
②口⑦口 |⑤-⑥-|
口⑥口⑧ |⑦-⑧-|
19
⑤③②⑤ |①-②-|
④⑥⑥④ |③-④-|
⑤①口⑤ |----⑤-|
⑥口口⑥ |--⑥---|
20
口口口口 |----|
口⑥⑤口 |----|
口④③口 |--①②|
口②①口 |③④⑤⑥|
21
口⑧⑤③ |①-②-|
口⑧口④ |③-④-|
口口⑥② |⑤-⑥-|
口口⑦① |⑦-⑧-|
22
口口④① |--①-|
口口④② |②-③-|
口口口③ |④---|
口口⑥⑤ |⑤-⑥-|
23
口口⑥③ |①-②-|
口口④② |③-④-|
口⑧①⑤ |⑤-⑥-|
口⑧口⑦ |⑦-⑧-|
24
④口口口 |①---|
②口口口 |②---|
③口口口 |③---|
①口口口 |④---|
25
口⑧⑤③ |①-②-|
口⑧口④ |③-④-|
口口⑥② |⑤-⑥-|
口口⑦① |⑦-⑧-|
26
口口④① |--①-|
口口④② |②-③-|
口口口③ |④---|
口口⑥⑤ |⑤-⑥-|
27
口⑦⑥③ |①-②-|
口⑧④② |③-④-|
口口①⑤ |⑤-⑥-|
口口口口 |--⑦⑧|
28
口口口口 |①---|
口⑦⑥口 |----|
口⑤④口 |--②③|
口③②① |④⑤⑥⑦|
29
⑦⑧⑤③ |①-②-|
③⑧口④ |③-④-|
⑤口⑥② |⑤-⑥-|
①口⑦① |⑦-⑧-|
30
⑥口⑤② |①-②-|
③口⑤③ |③-④-|
⑤口口④ |⑤---|
①口⑦⑥ |⑥-⑦-|
31
⑦口⑥③ |①-②-|
③口④② |③-④-|
⑤⑧①⑤ |⑤-⑥-|
①⑧口⑦ |⑦-⑧-|
32
④口口口 |①---|
②口口口 |②---|
③口口口 |③---|
①口口口 |④---|
33
⑦⑧⑤③ |①-②-|
③⑧口④ |③-④-|
⑤口⑥② |⑤-⑥-|
①口⑦① |⑦-⑧-|
34
⑥口⑤② |①-②-|
③口⑤③ |③-④-|
⑤口口④ |⑤---|
①口⑦⑥ |⑥-⑦-|
35
⑦⑧⑥③ |①-②-|
③⑨④② |③-④-|
⑤口①⑤ |⑤-⑥-|
①口口口 |⑦-⑧⑨|
36
口口口口 |①---|
②口口② |--②-|
口②②口 |----|
口口口① |----|
37
②②口⑦ |①---|
④④口口 |②-③-|
⑥⑥口③ |④-⑤-|
①①⑤① |⑥-⑦-|
38
③③口⑧ |①-②-|
⑤⑤②口 |③-④-|
⑦⑦口④ |⑤-⑥-|
①①⑥口 |⑦-⑧-|
39
③③口口 |①-②-|
⑤⑤②⑧ |③-④-|
⑦⑦⑥④ |⑤-⑥-|
①①口口 |⑦-⑧-|
40
⑤⑤①① |①-②-|
④⑥②口 |③-④-|
口口口口 |⑤-⑥-|
⑦⑦③③ |⑦---|
41
⑥口①① |----|
口④③③ |①-②-|
②口⑤⑤ |③-④-|
口口口口 |⑤-⑥-|
42
口②④口 |①-②-|
⑦⑦口⑥ |③-④-|
⑤⑤口口 |⑤-⑥-|
③③①① |⑦---|
43
⑥口⑪① |----|
⑧⑩③口 |①②③④|
②口⑦⑤ |⑤⑥⑦⑧|
⑫④口⑨ |⑨⑩⑪⑫|
44
④④口口 |①-②-|
口口③口 |③-④-|
口②口口 |----|
口口①口 |----|
45
②②口⑦ |①---|
④④口口 |②-③-|
⑥⑥口③ |④-⑤-|
①①⑤① |⑥-⑦-|
46
③③口⑧ |①-②-|
⑤⑤②口 |③-④-|
⑦⑦口④ |⑤-⑥-|
①①⑥口 |⑦-⑧-|
47
③③口口 |①-②-|
⑤⑤②⑧ |③-④-|
⑦⑦⑥④ |⑤-⑥-|
①①口口 |⑦-⑧-|
48
⑤⑤①① |①-②-|
④⑥②口 |③-④-|
口口口口 |⑤-⑥-|
⑦⑦③③ |⑦---|
49
⑥口①① |----|
口④③③ |①-②-|
②口⑤⑤ |③-④-|
口口口口 |⑤-⑥-|
50
口②④口 |①-②-|
⑦⑦口⑥ |③-④-|
⑤⑤口口 |⑤-⑥-|
③③①① |⑦---|
51
④①口口 |①---|
口口③⑤ |②③④⑤|
口口口口
②口①口

口⑫⑦口
⑧口口口
⑥⑩口⑬ |⑥⑦⑧⑨|
口口⑪⑨ |⑩⑪⑫⑬|
52
口口④④ |①---②-|
口③口口 |--③---|
口口②口 |④---|
口①口口 |----|
53
口口口口 |①---|
①口口① |----|
口口口口 |----|
口①①口 |----|
54
①口口② |----|
③口口④ |----|
⑤口口⑥ |--①②|
口口口口 |③④⑤⑥|
55
口口口口 |①---|
口口口口 |②③④⑤|
口⑤④口
①③②口

口⑨⑧口
口⑦⑥口
⑬口口⑫ |⑥⑦⑧⑨|
⑪口口⑩ |⑩⑪⑫⑬|
56
④⑥⑦③ |①②③④|
②口口① |--⑤---|
口口口口 |⑥---⑦-|
口⑧⑤口 |--⑧---|
57
③③口口 |①---|
①①①① |--②-|
②口③口 |----|
口口②② |③---|
58
口口②① |--①-|
口口④⑤ |②-③-|
口口⑥③ |④-⑤-|
口口口⑦ |⑥-⑦-|
59
①①口② |①---|
口口③③ |--②-|
③③口口 |----|
②②口口 |③---|
60
①②③② |----|
②①口口 |①---|
口口口口 |②---|
③③口① |③---|
61
⑤⑤⑧④ |①-②-|
口口⑥⑤ |③-④-|
①①①② |⑤-⑥-|
口口③⑦ |⑦-⑧-|
62
口口⑧④ |①-②-|
⑤⑤⑥⑤ |③-④-|
口口①② |⑤-⑥-|
①①③⑦ |⑦-⑧-|
63
①①口口 |①---|
口口口口 |②③④⑤|
⑤口口④
口③②口

⑬口口⑫
口⑪⑩口
口⑦⑥口 |⑥⑦⑧⑨|
⑨口口⑧ |⑩⑪⑫⑬|
64
口④③口 |①②③④|
②口口① |--⑤---|
口⑥⑦口 |⑥---⑦-|
口⑧⑤口 |--⑧---|
65
①①①① |①---|
③①①③ |--②-|
②③③② |----|
②口口② |③---|
66
①②口口 |--①-|
⑤④口口 |②-③-|
③⑥口口 |④-⑤-|
⑦口口口 |⑥-⑦-|
67
②口①① |①---|
③③口口 |--②-|
口口③③ |----|
口口②② |③---|
68
②③②① |----|
口口①② |①---|
口口口口 |②---|
①口③③ |③---|
69
④⑧⑤⑤ |①-②-|
⑤⑥口口 |③-④-|
②①①① |⑤-⑥-|
⑦③口口 |⑦-⑧-|
70
口⑥⑥口 |①---②-|
⑤④④⑤ |--③---|
②①①② |④---⑤-|
口③③口 |--⑥---|
71
①口口③ |①---|
口口口口 |--②-|
口口口② |----|
口口口口 |③---|
72
口口②口 |--①-|
口口口口 |----|
①口口口 |②---|
口③口口 |③---|
73
口口口口 |①-②③|
口①①⑥ |④⑤⑥-|
⑤口口④
③口口②

口⑫⑪口
口⑭⑬口
口⑩⑨口 |⑦⑧⑨⑩|
口⑧⑦口 |⑪⑫⑬⑭|
74
⑪⑪口口 |--①②|
口口⑩⑤ |③④⑤-|
④⑨⑧③ |⑥⑦⑧⑨|
②⑦⑥① |⑩-⑪-|


不确定度: 0

タグ:

+ タグ編集
  • タグ:

このサイトはreCAPTCHAによって保護されており、Googleの プライバシーポリシー利用規約 が適用されます。

最終更新:2012年11月27日 22:16