SigSig
kors k

BASIC

Level: 6
BPM: 179
Notes: 369

1
口口口口 |----|
口口口口 |----|
口口口口 |----|
口口口口 |----|
2
①口口口 |①---|
口②口口 |②---|
③口口口 |③---|
口④口口 |④---|
3
口口口① |①---|
口口②口 |②---|
口口口③ |③---|
口口④口 |④---|
4
口①口口 |①---|
口口②口 |②---|
口③口口 |③---|
口口④口 |④---|
5
口口①口 |①---|
口②口口 |②---|
口口③口 |③---|
口④口口 |④---|
6
①口口口 |①---|
口②口口 |②---|
③口口口 |③---|
口④口口 |④---|
7
口口口① |①---|
口口②口 |②---|
口口口③ |③---|
口口④口 |④---|
8
①口口口 |①---|
口口口② |②---|
③口口口 |③---|
口口口④ |④---|
9
口口口口 |①---|
②口口② |----|
口①①口 |②---|
口口口口 |----|
10
口口口口 |①---|
口口口口 |----|
口①①口 |----|
口口口口 |----|
11
口口口口 |----|
①②③口 |----|
口口口口 |--①-|
口口口口 |②-③-|
12
口口口口 |①---|
口口口① |----|
口口②口 |----|
口口口口 |--②-|
13
口②③口 |①---|
口口口口 |----|
口①口口 |----|
口口口口 |②-③-|
14
口口口① |①---|
口口口口 |----|
口口②口 |----|
口口口口 |--②-|
15
口口口口 |①-②-|
口口口口 |----|
②①口口 |----|
口口口口 |----|
16
①口口② |①---|
口口口口 |----|
口口口口 |②---|
口口口口 |----|
17
口口口口 |①---|
口口口口 |②---|
①口口② |③---|
③口口④ |④---|
18
口口口口 |①---|
④①②④ |②---|
口口口口 |③---|
口③③口 |④---|
19
①口口② |①---|
口口口口 |②---|
③④口口 |③---|
口口口口 |④---|
20
口口口② |①---|
口口口③ |②---|
口口①④ |③---|
口口口口 |④---|
21
①口口② |①---|
口口口口 |②---|
③④口口 |③---|
口口口口 |④---|
22
口口口口 |①---|
口④③② |②---|
口口①口 |③---|
口口口口 |④---|
23
②口口① |①---|
口口口口 |②---|
口口④③ |③---|
口口口口 |④---|
24
②口口口 |①---|
③口口口 |②---|
④①口口 |③---|
口口口口 |④---|
25
②口口① |①---|
口口口口 |②---|
口口④③ |③---|
口口口口 |④---|
26
口口口口 |①---|
②③口口 |----|
口①口口 |②---|
口口口口 |③---|
27
口③口② |①---|
口口口口 |②---|
口口①④ |③---|
口口口口 |④---|
28
①口口② |①---|
口口口③ |②---|
口口口④ |③---|
口口口口 |④---|
29
②口③口 |①---|
口口口口 |②---|
④①口口 |③---|
口口口口 |④---|
30
口口口① |①---|
②③④口 |②---|
口口口口 |③---|
口口口口 |④---|
31
口③口② |①---|
口口口口 |②---|
口口口④ |③---|
口①口口 |④---|
32
①口口② |①---|
口口口③ |②---|
口口口④ |③---|
口口口口 |④---|
33
②口③口 |①---|
口口口口 |②---|
④口口口 |③---|
口口①口 |④---|
34
②口口② |①---|
口口口口 |----|
口①①口 |②---|
口口口口 |----|
35
口口口口 |①---|
①口②口 |②---|
口③口④ |③---|
口口口口 |④---|
36
口①②口 |①---|
口口口口 |②---|
④口口④ |③---|
口③③口 |④---|
37
①口②口 |①---|
口③口④ |②---|
口口口口 |③---|
口口口口 |④---|
38
口口口口 |①---|
④口口④ |②---|
③①①③ |③---|
口②②口 |④---|
39
①口②口 |①---|
口③口④ |②---|
口口口口 |③---|
口口口口 |④---|
40
口①②口 |①---|
口口口口 |②---|
④口口④ |③---|
口③③口 |④---|
41
口口口口 |①---|
①口②口 |②---|
口③口④ |③---|
口口口口 |④---|
42
①口口① |①---|
口②②口 |②---|
口③③口 |③---|
④口口④ |④---|
43
口①口口 |①---|
口②口口 |②---|
口③口口 |③---|
口④口口 |④---|
44
口口①口 |①---|
口口②口 |②---|
口口③口 |③---|
口口④口 |④---|
45
①口口口 |①---|
②口口口 |②---|
③口口口 |③---|
④口口口 |④---|
46
口口口① |①---|
口口口② |②---|
口口口③ |③---|
口口口④ |④---|
47
①口口口 |①---|
口②口口 |②---|
③口口口 |③---|
口④口口 |④---|
48
口口口① |①---|
口口②口 |②---|
口口口③ |③---|
口口④口 |④---|
49
口口①口 |①---|
口②口口 |②---|
口口③口 |③---|
口④口口 |④---|
50
③口口口 |①---|
②口口口 |②---|
①口口口 |③---|
口口口口 |----|
51
⑤口口① |①---|
②③④口 |②-③-|
口口口口 |④---|
口口口口 |⑤---|
52
口口口口 |①---|
口口③口 |②---|
口口②口 |③---|
口口①口 |----|
53
①口口⑤ |①---|
口口口口 |②-③-|
口④③② |④---|
口口口口 |⑤---|
54
口①口口 |①---|
口②口口 |②---|
口③口口 |③---|
口口口口 |----|
55
口口口口 |①---|
①口口⑤ |②-③-|
口口口口 |④---|
口④③② |⑤---|
56
口口①口 |①---|
口②口口 |②---|
口口③口 |③---|
口④口口 |④---|
57
口①口口 |①---|
口口②口 |②---|
口③口口 |③---|
口口④口 |④---|
58
口口口③ |①---|
口口口② |②---|
口口口① |③---|
口口口口 |----|
59
①口②⑤ |①---|
口口③口 |②-③-|
口口④口 |④---|
口口口口 |⑤---|
60
口口口口 |①---|
③③口口 |②---|
②②口口 |③---|
①①口口 |----|
61
⑤②口① |①---|
口③口口 |②-③-|
口④口口 |④---|
口口口口 |⑤---|
62
口口①① |①---|
口口②② |②---|
口口③③ |③---|
口口口口 |----|
63
①口②⑤ |①---|
口口③口 |②-③-|
口口④口 |④---|
口口口口 |⑤---|
64
口①口口 |①---|
口口②口 |②---|
口③口口 |③---|
口口④口 |④---|
65
口口①口 |①---|
口②口口 |②---|
口口③口 |③---|
口④口口 |④---|
66
③口口口 |①---|
②口口口 |②---|
①口口口 |③---|
口口口口 |----|
67
⑤口口① |①---|
②③④口 |②-③-|
口口口口 |④---|
口口口口 |⑤---|
68
口口口口 |①---|
口口③③ |②---|
口口②② |③---|
口口①① |----|
69
①口口⑤ |①---|
口口口口 |②-③-|
口④③② |④---|
口口口口 |⑤---|
70
①①口口 |①---|
②②口口 |②---|
③③口口 |③---|
口口口口 |----|
71
①口口⑤ |①---|
口④③② |②-③-|
口口口口 |④---|
口口口口 |⑤---|
72
口①口口 |①---|
②口口口 |②---|
口③口口 |③---|
④口口口 |④---|
73
口口①口 |①---|
口口口② |②---|
口口③口 |③---|
口口口④ |④---|
74
②口口② |①---|
口口口口 |----|
口口口口 |②---|
口①①口 |----|
75
口口口口 |①---|
①口③② |--②-|
④⑤口口 |③---|
口口口口 |④-⑤-|
76
口口③② |①---|
④口口口 |--②-|
口口①口 |③---|
口口口口 |④---|
77
口口口口 |①---|
④口①口 |--②-|
口口口口 |③---|
口②③口 |④---|
78
口②口① |①---|
口口口口 |②---|
口④③口 |③---|
口口口口 |④---|
79
口口口① |①---|
②③口④ |--②-|
口口口口 |③---|
口口口口 |④---|
80
口口口口 |①---|
口口口口 |②---|
口①②口 |③---|
口③④口 |④---|
81
口口口口 |①---|
①口②口 |----|
口口口口 |②---|
口口口口 |----|
82
口口口口 |①---|
口口口口 |②---|
①②③口 |③---|
口口口口 |----|
83
口①口口 |①---|
口口②口 |②---|
口③口口 |③---|
口口④口 |④---|
84
①口口口 |①---|
口②口口 |②---|
③口口口 |③---|
口④口口 |④---|
85
口口口① |①---|
口口②口 |②---|
口口口③ |③---|
口口④口 |④---|
86
口①口口 |①---|
口口②口 |②---|
口③口口 |③---|
口口④口 |④---|
87
①口口口 |①---|
口②口口 |②---|
③口口口 |③---|
口④口口 |④---|
88
口口口① |①---|
口口②口 |②---|
口口口③ |③---|
口口④口 |④---|
89
①口口口 |①---|
口口口② |②---|
③口口口 |③---|
口口口④ |④---|
90
②口口② |①---|
口口口口 |----|
口①①口 |②---|
口口口口 |----|
91
口口口口 |①---|
口①①口 |----|
口口口口 |----|
口口口口 |----|


不确定度: 0

最終更新:2012年11月11日 17:47