SigSig
kors k

ADVANCED

Level: 8
BPM: 179
Notes: 568

1
口口口口 |----|
口口口口 |----|
口口口口 |----|
口口口口 |----|
2
①②口口 |①-②-|
③④口口 |③-④-|
⑤⑥口口 |⑤-⑥-|
⑦⑧口口 |⑦-⑧-|
3
①②口口 |①-②-|
③④口口 |③-④-|
⑤⑥口口 |⑤-⑥-|
⑦⑧口口 |⑦-⑧-|
4
口口①② |①-②-|
口口③④ |③-④-|
口口⑤⑥ |⑤-⑥-|
口口⑦⑧ |⑦-⑧-|
5
口口①② |①-②-|
口口③④ |③-④-|
口口⑤⑥ |⑤-⑥-|
口口⑦⑧ |⑦-⑧-|
6
口①②口 |①-②-|
口③④口 |③-④-|
口⑤⑥口 |⑤-⑥-|
口⑦⑧口 |⑦-⑧-|
7
口①②口 |①-②-|
口③④口 |③-④-|
口⑤⑥口 |⑤-⑥-|
口⑦⑧口 |⑦-⑧-|
8
①口口② |①-②-|
③口口④ |③-④-|
⑤口口⑥ |⑤-⑥-|
⑦口口⑧ |⑦-⑧-|
9
口口口口 |①---|
②②②② |----|
口①①口 |②---|
口口口口 |----|
10
口口口口 |①---|
口口口口 |----|
口口口口 |----|
口①①口 |----|
11
①口口① |----|
②口口② |----|
③口口③ |--①-|
口口口口 |②-③-|
12
口口口口 |①---|
口口口口 |----|
口②②口 |----|
①口口① |--②-|
13
②口口② |①---|
③口口③ |----|
口口口口 |----|
口①①口 |②-③-|
14
口口口口 |①---|
口②②口 |----|
①口口① |----|
口口口口 |--②-|
15
口口口口 |①-②-|
③口口口 |----|
口①①口 |----|
口②②口 |--③-|
16
④口口口 |①---|
口口口② |--②-|
口①③口 |③---|
口口口口 |--④-|
17
口口口① |①-②-|
口②③口 |③-④-|
④口口⑤ |⑤-⑥-|
⑧⑥⑦口 |⑦-⑧-|
18
口⑥⑦口 |①-②-|
口④⑤口 |③-④-|
口②③口 |⑤-⑥-|
口口口① |⑦---|
19
口口口② |①---|
①口③口 |②-③-|
⑥④口口 |④-⑤-|
⑤口口口 |⑥---|
20
①口口口 |①---|
口③②口 |②-③-|
口⑤④口 |④-⑤-|
口⑦⑥口 |⑥-⑦-|
21
口口口② |①---|
①口③口 |②-③-|
⑥④口口 |④-⑤-|
⑤口口口 |⑥---|
22
①口口口 |①---|
口③②口 |②-③-|
口⑤④口 |④-⑤-|
口口口⑥ |⑥---|
23
②口口口 |①---|
口③口① |②-③-|
口口④⑥ |④-⑤-|
口口口⑤ |⑥---|
24
口口口① |①---|
口②③口 |②-③-|
口④⑤口 |④-⑤-|
口⑥⑦口 |⑥-⑦-|
25
②口口口 |①---|
口③口① |②-③-|
口口④⑥ |④-⑤-|
口口口⑤ |⑥---|
26
口口口① |①---|
口②③口 |--②-|
口④⑤口 |③-④-|
口口口口 |⑤---|
27
口口口② |①---|
口口③口 |②-③-|
⑥④口口 |④-⑤-|
⑤①口口 |⑥---|
28
①口口② |①---|
口口③④ |②-③-|
口口⑤⑥ |④-⑤-|
口口⑦口 |⑥-⑦-|
29
口口口② |①---|
口口③口 |②-③-|
⑥④口口 |④-⑤-|
⑤①口口 |⑥---|
30
①口口② |①---|
口口③④ |②-③-|
口口⑤⑥ |④-⑤-|
口口⑦口 |⑥-⑦-|
31
口口②口 |①---|
口③口④ |②-③-|
①口⑤口 |④-⑤-|
口⑥口口 |⑥---|
32
①口口② |①---|
口口③④ |②-③-|
口口⑤⑥ |④-⑤-|
口口⑦口 |⑥-⑦-|
33
口口②口 |①---|
口③口④ |②-③-|
①口⑤口 |④-⑤-|
口⑥口口 |⑥---|
34
②②②② |①---|
口口口口 |----|
①口口① |②---|
口口口口 |----|
35
口口口口 |①---|
口②④口 |②---|
口口口口 |③---|
口①③口 |④---|
36
①口口③ |①-②-|
⑥口口⑥ |③-④-|
口②④口 |⑤---|
口⑤⑤口 |⑥---|
37
口②④口 |①---|
口口口口 |②---|
口①③口 |③---|
口口口口 |④---|
38
②口口② |①---|
④①①④ |②---|
口口口口 |③---|
口③③口 |④---|
39
口②④口 |①---|
口口口口 |②---|
口①③口 |③---|
口口口口 |④---|
40
①口口③ |①-②-|
⑥口口⑥ |③-④-|
口②④口 |⑤---|
口⑤⑤口 |⑥---|
41
口②④口 |①---|
口口口口 |②---|
口①③口 |③---|
口口口口 |④---|
42
①口口① |①---|
②口口② |②---|
口③③口 |③---|
④口口④ |④---|
43
①②④③ |①-②-|
⑤⑥⑧⑦ |③-④-|
口口口口 |⑤-⑥-|
口口口口 |⑦-⑧-|
44
口口口口 |①-②-|
口口口口 |③-④-|
①②④③ |⑤-⑥-|
⑤⑥⑧⑦ |⑦-⑧-|
45
口①②口 |①-②-|
口③④口 |③-④-|
口⑤⑥口 |⑤-⑥-|
口⑦⑧口 |⑦-⑧-|
46
①口口① |①---|
②口口② |②---|
③④④③ |③---|
口口口口 |--④-|
47
①⑤⑤① |①---|
④①①④ |②-③-|
口口口口 |④---|
口②③口 |⑤---|
48
①口口口 |①---|
口②口口 |②---|
口口③口 |③---|
口口口④ |④---|
49
口①口② |①---|
口口③④ |②-③-|
口口⑤⑥ |④-⑤-|
口口⑦口 |⑥-⑦-|
50
③口口口 |①---|
②口口口 |②---|
①口口口 |③---|
口口口口 |----|
51
⑤口口⑤ |①---|
②口口③ |②-③-|
口①①口 |④---|
④口口④ |⑤---|
52
④口口④ |①---|
口③口口 |②---|
⑤口②⑤ |③-④-|
口①口口 |--⑤-|
53
⑤④④⑤ |①---|
②口口③ |②-③-|
口口口口 |④---|
①①①① |⑤---|
54
口③③口 |①---|
口②②口 |②---|
口①①口 |③---|
口④④口 |--④-|
55
口口口口 |①---|
②③口口 |②-③-|
①①①①
口口口口

⑤口口⑤
口口④口
⑥口口⑥ |④-⑤-|
口口口口 |--⑥-|
56
⑤口口口 |①---|
③口口③ |②---|
口②②口 |③---|
①④④① |④-⑤-|
57
口口口② |①---|
口①③口 |--②-|
④口口口 |③---|
口口口口 |--④-|
58
口口口口 |①-②-|
⑥口口⑦ |③-④-|
口④⑤② |⑤-⑥-|
口①③口 |⑦---|
59
①口口② |①---|
口口③口 |②-③-|
口④口口 |④---|
口口口⑤ |⑤---|
60
口①①口 |①---|
②口口② |②---|
③口口③ |③---|
口口口口 |----|
61
②口口① |①---|
口③口口 |②-③-|
口口④口 |④---|
⑤口口口 |⑤---|
62
③口口③ |①---|
②口口② |②---|
①口口① |③---|
口口口口 |----|
63
⑤②口口 |①---|
口口③口 |②-③-|
①口口④ |④---|
口口口口 |⑤---|
64
口④口口 |①---|
口口③口 |②---|
口②口口 |③---|
口口①口 |④---|
65
口口口① |①---|
口②③口 |②-③-|
口④⑤口 |④-⑤-|
口⑥⑦口 |⑥-⑦-|
66
①口口① |①---|
②口口② |②---|
③口口③ |③---|
口口口口 |----|
67
①口口② |①---|
口口③口 |②-③-|
口④口口 |④---|
口口口⑤ |⑤---|
68
口①①口 |①---|
②口口② |②---|
③口口③ |③---|
口口口口 |----|
69
②口口① |①---|
口③口口 |②-③-|
口口④口 |④---|
⑤口口口 |⑤---|
70
③口口③ |①---|
②口口② |②---|
①口口① |③---|
口口口口 |----|
71
⑤②口口 |①---|
口口③口 |②-③-|
①口口④ |④---|
口口口口 |⑤---|
72
口④口口 |①---|
口口③口 |②---|
口②口口 |③---|
口口①口 |④---|
73
口口口① |①---|
口②③口 |②-③-|
口④⑤口 |④-⑤-|
口⑥⑦口 |⑥-⑦-|
74
①口口① |①---|
②口口② |②---|
③③③③ |③---|
口口口口 |----|
75
口①口口 |①---|
③口口② |--②-|
口⑤④口 |③---|
口口口口 |④-⑤-|
76
口口口① |①---|
口③②口 |--②-|
④口口口 |③---|
口口口口 |④---|
77
口口口口 |①---|
④口口口 |--②-|
口③②口 |③---|
口口口① |④---|
78
②口口① |①---|
口④③口 |②---|
口⑥⑤口 |③-④-|
口口口口 |⑤-⑥-|
79
口口①口 |①---|
②口口③ |--②-|
口④口口 |③---|
口口口口 |④---|
80
口口口口 |①---|
口口口口 |②---|
④口②口 |③---|
口③口① |④---|
81
口口①口 |①---|
②口口③ |--②-|
口口口口 |③---|
口口口口 |----|
82
口口口口 |①---|
③口口③ |②---|
口②②口 |③---|
口①①口 |----|
83
口①②口 |①-②-|
口③④口 |③-④-|
口⑤⑥口 |⑤-⑥-|
口⑦⑧口 |⑦-⑧-|
84
①②口口 |①-②-|
③④口口 |③-④-|
⑤⑥口口 |⑤-⑥-|
⑦⑧口口 |⑦-⑧-|
85
口口①② |①-②-|
口口③④ |③-④-|
口口⑤⑥ |⑤-⑥-|
口口⑦⑧ |⑦-⑧-|
86
口①②口 |①-②-|
口③④口 |③-④-|
口⑤⑥口 |⑤-⑥-|
口⑦⑧口 |⑦-⑧-|
87
①②口口 |①-②-|
③④口口 |③-④-|
⑤⑥口口 |⑤-⑥-|
⑦⑧口口 |⑦-⑧-|
88
口口①② |①-②-|
口口③④ |③-④-|
口口⑤⑥ |⑤-⑥-|
口口⑦⑧ |⑦-⑧-|
89
①口口② |①-②-|
③口口④ |③-④-|
⑤口口⑥ |⑤-⑥-|
⑦口口⑧ |⑦-⑧-|
90
②②②② |①---|
口口口口 |----|
口①①口 |②---|
口口口口 |----|
91
口口口口 |①---|
口①①口 |----|
口①①口 |----|
口口口口 |----|


不确定度: 0

最終更新:2012年11月11日 17:46