SigSig
kors k

EXTREME

Level: 9
BPM: 179
Notes: 824

1
口口口口 |----|
口口口口 |----|
口口口口 |----|
口口口口 |----|
2
①口①⑤ |①-②-|
口②⑥口 |③-④-|
口口③⑦ |⑤-⑥-|
口④⑧口 |⑦-⑧-|
3
①⑤口⑤ |①-②-|
口②⑥口 |③-④-|
③⑦口口 |⑤-⑥-|
口④⑧口 |⑦-⑧-|
4
①⑤口⑤ |①-②-|
口②⑥口 |③-④-|
③⑦口口 |⑤-⑥-|
口④⑧口 |⑦-⑧-|
5
①口①⑤ |①-②-|
口②⑥口 |③-④-|
口口③⑦ |⑤-⑥-|
口④⑧口 |⑦-⑧-|
6
①⑤①⑤ |①-②-|
口②⑥口 |③-④-|
口⑦③口 |⑤-⑥-|
口④⑧口 |⑦-⑧-|
7
①⑤口⑤ |①-②-|
口②⑥口 |③-④-|
③⑦口口 |⑤-⑥-|
口④⑧口 |⑦-⑧-|
8
①⑤①⑤ |①-②-|
口②⑥口 |③-④-|
口⑦③口 |⑤-⑥-|
口④⑧口 |⑦-⑧-|
9
②②②② |①---|
口口口口 |----|
①口口① |②---|
口口口口 |----|
10
口口口口 |①---|
口①①口 |----|
口①①口 |----|
口口口口 |----|
11
口口①① |----|
③③②② |----|
②②③③ |--①-|
①①口口 |②-③-|
12
①①②② |①---|
口口口口 |----|
口口口口 |----|
②②①① |--②-|
13
口口口口 |①---|
口口①① |----|
①①口口
口口口口

口口②②
口口③③
③③口口 |----|
②②口口 |②-③-|
14
口口②② |①---|
①①口口 |----|
口口①① |----|
②②口口 |--②-|
15
③③口口 |①-②-|
②②①① |----|
①①②② |----|
口口口口 |--③-|
16
口口口④ |①---|
①①口口 |--②-|
口口③③ |③---|
口口②② |--④-|
17
②口口⑧ |①-②-|
③口口① |③-④-|
⑦口口⑤ |⑤-⑥-|
⑥口口④ |⑦-⑧-|
18
⑬①②⑬ |①②③④|
口③④口 |⑤⑥⑦⑧|
⑪⑤⑥⑫ |⑨⑩⑪⑫|
⑨⑦⑧⑩ |⑬---|
19
口②口口 |①---|
①③口① |②-③-|
④③口⑥ |④-⑤-|
口②⑤口 |⑥---|
20
口口口口 |①---|
口②③① |②-③-|
口⑤④口 |④-⑤-|
⑦口口⑥ |⑥-⑦-|
21
口口②口 |①---|
⑥口③④ |②-③-|
①口③① |④-⑤-|
口⑤②口 |⑥---|
22
①口口口 |①---|
口③②口 |②-③-|
⑤口口④ |④-⑤-|
⑦口口⑥ |⑥-⑦-|
23
口②口口 |①---|
①③口① |②-③-|
④③口⑥ |④-⑤-|
口②⑤口 |⑥---|
24
①口口口 |①---|
口③②口 |②-③-|
口⑤④口 |④-⑤-|
⑦口口⑥ |⑥-⑦-|
25
口口②口 |①---|
⑥口③④ |②-③-|
①口③① |④-⑤-|
口⑤②口 |⑥---|
26
①口口口 |①---|
口口口口 |--②-|
口③②口 |③-④-|
⑤口口④ |⑤---|
27
口②④④ |①---|
①③口① |②-③-|
口③口口 |④-⑤-|
⑤②⑥⑥ |⑥---|
28
①口口口 |①---|
口③②口 |②-③-|
口⑤④口 |④-⑤-|
⑦口口⑥ |⑥-⑦-|
29
口口②口 |①---|
口口③口 |②-③-|
①口③①
口口②口

④④口口
口口口⑤
口口口⑦ |④-⑤-|
⑥⑥口口 |⑥-⑦-|
30
口口口口 |①---|
①③②口 |②-③-|
④④⑤口 |④-⑤-|
⑥⑥⑦口 |⑥-⑦-|
31
④④⑥⑥ |①---|
①②②① |②-③-|
③⑦⑤③ |④-⑤-|
口口口口 |⑥-⑦-|
32
口口口口 |①---|
①口口口 |②-③-|
③口口② |④-⑤-|
⑤⑦⑥④ |⑥-⑦-|
33
口口口口 |①---|
①口口① |②-③-|
②②③③
口口口口

④口口④
⑦⑤⑤⑦
口口口口 |④-⑤-|
口⑥⑥口 |⑥-⑦-|
34
②②②② |①---|
口口口口 |----|
口口口口 |②---|
①口口① |----|
35
口⑥⑦口 |①-②③|
②③④⑤ |④⑤⑥⑦|
①⑧⑩① |⑧-⑨-|
口⑨⑪口 |⑩-⑪-|
36
①口口② |①-②-|
③口口④ |③-④-|
口口口口 |⑤---|
⑤⑥⑥⑤ |⑥---|
37
口⑥⑦口 |①-②③|
②③④⑤ |④⑤⑥⑦|
①⑧⑨① |⑧-⑨-|
口⑩⑪口 |⑩-⑪-|
38
口③③口 |①---|
①①②② |②---|
口口口口 |③---|
口④④口 |④---|
39
口⑥⑦口 |①-②③|
②③④⑤ |④⑤⑥⑦|
①⑧⑨① |⑧-⑨-|
口⑩⑪口 |⑩-⑪-|
40
⑥口口⑥ |①-②-|
口⑤⑤口 |③-④-|
①口口② |⑤---|
③口口④ |⑥---|
41
口⑩⑪口 |①-②③|
⑥⑦⑧⑨ |④⑤⑥⑦|
②③④⑤ |⑧-⑨-|
口①①口 |⑩-⑪-|
42
①口口① |①---|
口口口口 |②---|
③口口③ |③---|
④②②④ |④---|
43
①①口口 |①-②-|
⑤⑤口② |③-④-|
④④③⑥ |⑤-⑥-|
⑧⑧⑦口 |⑦-⑧-|
44
①①口口 |①-②-|
⑤⑤口② |③-④-|
④④③⑥ |⑤-⑥-|
⑧⑧⑦口 |⑦-⑧-|
45
①①口口 |①-②-|
⑤⑤口② |③-④-|
④④③⑥ |⑤-⑥-|
⑧⑧⑦口 |⑦-⑧-|
46
①③③① |①---|
口口口口 |②---|
口②②口 |③---|
④④④④ |--④-|
47
口口口⑤ |①---|
①①①① |②-③-|
②③④口 |④---|
口口口口 |⑤---|
48
④口口④ |①---|
③口口③ |②---|
②口口② |③---|
①口口① |④---|
49
口①口口 |①---|
口口口口 |②-③-|
口口③②
口口口口

口⑧⑦口
口⑥⑤口
口④口口 |④-⑤⑥|
口口口口 |⑦-⑧-|
50
③口口③ |①---|
口口口口 |②---|
②口口② |③---|
①口口① |----|
51
⑤口口口 |①---|
①①①① |②-③-|
口口口口 |④---|
口④③② |⑤---|
52
口口口口 |①---|
口②口口 |②---|
口①口口
口口口口

口③口口
口口口口
⑤⑤口口 |③-④-|
口口④④ |--⑤-|
53
⑤口①① |①---|
②口口口 |②-③-|
口口口③ |④---|
④口口口 |⑤---|
54
口口口口 |①---|
口②口口 |②---|
口口②口
口①①口

口③③口
口口口口
口口口口 |③---|
口④④口 |--④-|
55
②③④口 |①---|
①⑤⑤① |②-③-|
口口口⑥ |④-⑤-|
口⑦⑦口 |⑥-⑦-|
56
③口口④ |①-②-|
⑤口口② |③-④-|
⑦①①⑥ |⑤-⑥-|
口⑧⑧口 |⑦-⑧-|
57
⑤②③③ |①---|
口⑥④④ |②-③-|
⑦①①口 |④-⑤-|
口口口口 |⑥-⑦-|
58
口口口口 |①-②-|
口口口口 |③---|
口口口③
口①②口

口④⑤口
口⑥⑦口
口⑧⑨口 |④⑤⑥⑦|
口⑩⑪口 |⑧⑨⑩⑪|
59
①⑤口② |①---|
③口口口 |②-③-|
口口口④ |④---|
口口口口 |⑤---|
60
口口口口 |①---|
③③③③ |②---|
口②②口 |③---|
口①①口 |----|
61
②口⑤① |①---|
口口口③ |②-③-|
④口口口 |④---|
口口口口 |⑤---|
62
口①口① |①---|
②口②口 |②---|
口③口③ |③---|
口口口口 |----|
63
①⑤口② |①---|
③口口口 |②-③-|
口口口④ |④---|
口口口口 |⑤---|
64
④口④口 |①---|
口③口③ |②---|
②口②口 |③---|
口①口① |④---|
65
⑤⑥⑦⑧ |①---|
①口口口 |②-③-|
口④③② |④-⑤⑥|
口口口口 |⑦-⑧-|
66
口口口口 |①---|
③口口③ |②---|
②口口② |③---|
口①①口 |----|
67
⑦③②② |①-②-|
⑤口⑥⑥ |③-④-|
口口④④ |⑤-⑥-|
①口⑧⑧ |⑦-⑧-|
68
⑦口②② |①-②-|
⑤⑤⑥⑥ |③-④-|
③③④④ |⑤-⑥-|
①①⑧⑧ |⑦-⑧-|
69
⑦③②② |①-②-|
口⑤⑥⑥ |③-④-|
口口④④ |⑤-⑥-|
①口⑧⑧ |⑦-⑧-|
70
⑦口②② |①-②-|
⑤⑤⑥⑥ |③-④-|
③③④④ |⑤-⑥-|
①①⑧⑧ |⑦-⑧-|
71
口②①① |①---|
口③⑦⑦ |②-③-|
⑥④⑤⑤ |④-⑤-|
①口口口 |⑥-⑦-|
72
口口②② |①---|
③③口口 |②---|
口口④④ |③---|
口口①① |④---|
73
②③口口 |①---|
口口口口 |②-③-|
口口口口
口①①口

口口⑤④
口⑥口口
口口⑦口 |④-⑤⑥|
口⑧口口 |⑦-⑧-|
74
③口口③ |①---|
口③③口 |②---|
②口口② |③---|
①口口① |----|
75
口口口口 |①---|
口④⑤口 |--②-|
②口口③ |③---|
口口①① |④-⑤-|
76
口口口④ |①---|
口口口① |--②-|
②③口口 |③---|
口口口口 |④---|
77
①口口口 |①---|
口口口口 |--②-|
口口口口 |③---|
④口③② |④---|
78
②口口① |①---|
口④③口 |②---|
口⑥⑤口 |③-④-|
口口口口 |⑤-⑥-|
79
口①①口 |①---|
③口口② |--②-|
口口④口 |③---|
口口口口 |④---|
80
口口口口 |①---|
口口口口 |②---|
口口口口 |③---|
①②③④ |④---|
81
口口口口 |①---|
②口口③ |--②-|
口①①口 |③---|
口口口口 |----|
82
口③③口 |①---|
口②②口 |②---|
口口口口 |③---|
口①①口 |----|
83
⑤⑮⑯⑥ |①②③④|
①⑦⑧② |⑤⑥⑦⑧|
⑬③④⑭ |⑨⑩⑪⑫|
⑨⑪⑫⑩ |⑬⑭⑮⑯|
84
⑤⑮⑯⑥ |①②③④|
①⑦⑧② |⑤⑥⑦⑧|
⑬③④⑭ |⑨⑩⑪⑫|
⑨⑪⑫⑩ |⑬⑭⑮⑯|
85
⑤⑮⑯⑥ |①②③④|
①⑦⑧② |⑤⑥⑦⑧|
⑬③④⑭ |⑨⑩⑪⑫|
⑨⑪⑫⑩ |⑬⑭⑮⑯|
86
⑤⑮⑯⑥ |①②③④|
①⑦⑧② |⑤⑥⑦⑧|
⑬③④⑭ |⑨⑩⑪⑫|
⑨⑪⑫⑩ |⑬⑭⑮⑯|
87
⑤⑮⑯⑥ |①②③④|
①⑦⑧② |⑤⑥⑦⑧|
⑬③④⑭ |⑨⑩⑪⑫|
⑨⑪⑫⑩ |⑬⑭⑮⑯|
88
⑤⑮⑯⑥ |①②③④|
①⑦⑧② |⑤⑥⑦⑧|
⑬③④⑭ |⑨⑩⑪⑫|
⑨⑪⑫⑩ |⑬⑭⑮⑯|
89
⑤⑮⑯⑥ |①②③④|
①⑦⑧② |⑤⑥⑦⑧|
⑬③④⑭ |⑨⑩⑪⑫|
⑨⑪⑫⑩ |⑬⑭⑮⑯|
90
②口口② |①---|
②口口② |----|
口①①口 |②---|
口口口口 |----|
91
口①①口 |①---|
口①口口 |----|
口口①口 |----|
口①①口 |----|


不确定度: 0

最終更新:2012年11月11日 17:46