In Scottish Highlands
Thomas Howard Lichtenstein

BASIC

Level: 4
BPM: 145
Notes: 282

1
口口口口 |----|
口口口口 |----|
口口口口 |----|
口口口口 |----|
2
口②②口 |①---|
①口口口 |----|
口口口口 |②---|
口口口口 |----|
3
②口口② |①---|
口口口① |----|
口口口口 |②---|
口口口口 |----|
4
口②②口 |①---|
①口口口 |----|
口口口口 |②---|
口口口口 |----|
5
②②②② |①---|
口口口① |----|
口口口口 |②---|
口口口口 |----|
6
口口口口 |①---|
口②③口 |----|
口①①口 |②---|
口口口口 |③---|
7
口口口口 |①---|
口口口口 |②---|
口口①口 |③---|
口③②口 |----|
8
口①口口 |①---|
口口②口 |②---|
口③口口 |③---|
口口④口 |④---|
9
口口口③ |①---|
②口口口 |②---|
口口口① |③---|
口口口口 |----|
10
口口口口 |①---|
口③②口 |----|
口①①口 |②---|
口口口口 |③---|
11
口口口口 |①---|
口口口口 |②---|
口①口口 |③---|
口②③口 |----|
12
口①口① |①---|
②口②口 |----|
口口口口 |②---|
口口口口 |----|
13
口口口口 |①---|
口③口③ |②---|
②口②口 |③---|
口①口① |----|
14
口①口口 |①---|
口口②口 |②---|
口③口口 |③---|
口口口口 |----|
15
口口①口 |①---|
口②口口 |②---|
口口③口 |③---|
口口口口 |----|
16
口口口口 |①---|
④③②① |②---|
口口口口 |③---|
口口口口 |④---|
17
口口③口 |①---|
口口②口 |②---|
口口①口 |③---|
口口口口 |----|
18
口①口口 |①---|
口口②口 |②---|
口③口口 |③---|
口口口口 |----|
19
口口①口 |①---|
口②口口 |②---|
口口③口 |③---|
口口口口 |----|
20
口口口口 |①---|
④③②① |②---|
口口口口 |③---|
口口口口 |④---|
21
口③口口 |--①-|
口口②口 |②-③-|
口①口口 |----|
口口口口 |----|
22
口口口口 |①---|
口②③口 |----|
口①①口 |②---|
口口口口 |③---|
23
口口口口 |①---|
口口口口 |②---|
口口①口 |③---|
口③②口 |----|
24
口口①口 |①---|
口②口口 |②---|
口口③口 |③---|
口④口口 |④---|
25
③口口口 |①---|
口口口② |②---|
①口口口 |③---|
口口口口 |----|
26
口口口口 |①---|
口③②口 |----|
口①①口 |②---|
口口口口 |③---|
27
口口口口 |①---|
口口口口 |②---|
口①口口 |③---|
口②③口 |----|
28
①口①口 |①---|
口②口② |----|
口口口口 |②---|
口口口口 |----|
29
口口口口 |①---|
③口③口 |②---|
口②口② |③---|
①口①口 |----|
30
口①口口 |①---|
口口②口 |②---|
口③口口 |③---|
口口④口 |④---|
31
口口④③ |①---|
口口口② |②---|
口口口① |③---|
口口口口 |④---|
32
口①口口 |①---|
口②口口 |②---|
口③口口 |③---|
口口④口 |④---|
33
口口口口 |①---|
口口口口 |②---|
口③②口 |③---|
口①口口 |----|
34
口口①口 |①---|
④口口口 |②---|
口③②口 |③---|
口口口口 |④---|
35
口口口口 |①---|
口①②口 |②---|
口③④口 |③---|
口口口口 |④---|
36
口④口口 |①---|
口口③口 |②---|
口②口口 |③---|
口口①口 |④---|
37
②口口② |①---|
①②②① |----|
口口口口 |②---|
口口口口 |----|
38
口口①口 |①---|
口②口口 |②---|
口口③口 |③---|
口口口口 |----|
39
口①口口 |①---|
口口②口 |②---|
口③口口 |③---|
口口口口 |----|
40
口口口口 |①---|
①②③④ |②---|
口口口口 |③---|
口口口口 |④---|
41
口③口口 |①---|
口②口口 |②---|
口①口口 |③---|
口口口口 |----|
42
口口①口 |①---|
口②口口 |②---|
口口③口 |③---|
口口口口 |----|
43
口①口口 |①---|
口口②口 |②---|
口③口口 |③---|
口口口口 |----|
44
口口口口 |①---|
④③②① |②---|
口口口口 |③---|
口口口口 |④---|
45
口口③口 |--①-|
口②口口 |②-③-|
口口①口 |----|
口口口口 |----|
46
口口口口 |①---|
口②③口 |----|
口①①口 |②---|
口口口口 |③---|
47
口口口口 |①---|
口口口口 |②---|
口口①口 |③---|
口③②口 |----|
48
口①口口 |①---|
口口②口 |②---|
口③口口 |③---|
口口④口 |④---|
49
口口口③ |①---|
②口口口 |②---|
口口口① |③---|
口口口口 |----|
50
口口口口 |①---|
口③②口 |----|
口①①口 |②---|
口口口口 |③---|
51
口口口口 |①---|
口口口口 |②---|
口①口口 |③---|
口②③口 |----|
52
口①口① |①---|
②口②口 |----|
口口口口 |②---|
口口口口 |----|
53
口口口口 |①---|
口③口③ |②---|
②口②口 |③---|
口①口① |----|
54
⑤口口⑤ |①---|
④③③④ |②---|
口②②口 |③-④-|
口①①口 |⑤---|
55
④⑤⑤④ |①---|
③口口③ |②---|
口②②口 |③-④-|
口①①口 |⑤---|
56
⑤口口⑤ |①---|
④③③④ |②---|
口②②口 |③-④-|
口①①口 |⑤---|
57
⑥⑦⑦⑥ |①-②-|
⑤口口⑤ |③-④-|
口①④口 |⑤-⑥-|
口③②口 |⑦---|
58
⑤口口⑤ |①---|
④③③④ |②---|
口②②口 |③-④-|
口①①口 |⑤---|
59
④⑤⑤④ |①---|
③口口③ |②---|
口②②口 |③-④-|
口①①口 |⑤---|
60
⑤口口⑤ |①---|
④③③④ |②---|
口②②口 |③-④-|
口①①口 |⑤---|
61
⑥⑦⑦⑥ |①-②-|
⑤口口⑤ |③-④-|
口①④口 |⑤-⑥-|
口③②口 |⑦---|
62
⑥⑥⑥⑥ |①-②-|
口⑤⑤口 |③-④-|
口①④口 |⑤---|
口③②口 |⑥---|


不确定度: 0

最終更新:2012年11月11日 17:46