In Scottish Highlands
Thomas Howard Lichtenstein

ADVANCED

Level: 7
BPM: 145
Notes: 523

1
口口口口 |----|
口口口口 |----|
口口口口 |----|
口口口口 |----|
2
①①②② |①---|
口⑤⑤口 |②---|
口④④口 |③-④-|
口③③口 |⑤---|
3
①①②② |①---|
⑤口⑤口 |②---|
口④口④ |③-④-|
③口③口 |⑤---|
4
①①②② |①---|
口⑤⑤口 |②---|
口④④口 |③-④-|
口③③口 |⑤---|
5
口口口④ |①-②-|
③⑤⑤⑧ |③-④-|
⑦⑤⑤② |⑤-⑥-|
①口口⑥ |⑦-⑧-|
6
②①①口 |①---|
②口口口 |--②-|
③④⑤口 |--③-|
③④⑤口 |④-⑤-|
7
口口口口 |①---|
口②②口 |--②-|
口口口① |----|
口口③① |--③-|
8
口口口口 |①---|
口口口口 |②---|
③①⑤② |③---|
②④④③ |④-⑤-|
9
②口口① |①---|
①口口② |②---|
口口口口
口口口口

口口口口
⑥③③口
口口口⑤ |③-④-|
④口口口 |⑤-⑥-|
10
口①①② |①---|
口口口② |--②-|
口⑤④③ |--③-|
口⑤④③ |④-⑤-|
11
口口口口 |①---|
口②②口 |--②-|
①口口口 |----|
①③③口 |--③-|
12
⑥③③⑥ |①-②-|
⑤②②⑤ |③---|
④①①④ |④-⑤-|
口口口口 |⑥---|
13
口口口口 |①-②-|
④口口④ |③-④-|
③口口③
②①①②

⑤⑤⑤⑤
口口口口
口⑥口口 |⑤---|
口口⑥口 |⑥---|
14
③③④④ |①---|
口①②口 |②---|
口口口口 |③-④-|
口口口口 |----|
15
口口口口 |①---|
口②①口 |②---|
口③③口 |③---|
口口口口 |----|
16
口①口口 |①---|
口口②口 |②---|
口③口口 |③---|
口口④口 |④---|
17
口口口② |①-②-|
③①①口 |③-④-|
口口口④
口口口口

口口口口
口⑥口口
口口口口 |⑤---|
⑤口口口 |--⑥-|
18
口口口口 |①---|
②口①③ |②---|
口口④口 |③-④-|
口口口口 |----|
19
口①②口 |①---|
口③口口 |②---|
口口④口 |③-④-|
口口口口 |----|
20
口口口口 |①---|
口②②口 |②---|
①⑤④③ |③---|
①④⑤③ |④-⑤-|
21
③口口③ |--①-|
②②①① |②-③-|
口口口口
口口口口

口口口口
口口口⑥
⑤口口口 |--④-|
口口口④ |⑤-⑥-|
22
②①①口 |①---|
②口口口 |--②-|
口⑤④③ |--③-|
口⑤④③ |④-⑤-|
23
口口口口 |①---|
口②②口 |--②-|
①口口口 |----|
①口③口 |--③-|
24
口口口口 |①---|
口口口口 |②---|
③①⑤② |③---|
②④④③ |④-⑤-|
25
②口口① |①---|
①口口② |②---|
口口口口
口口口口

口口口口
⑥③③口
口口口⑤ |③-④-|
④口口口 |⑤-⑥-|
26
口①①② |①---|
口口口② |--②-|
③④⑤口 |--③-|
③④⑤口 |④-⑤-|
27
口口口口 |①---|
口②②口 |--②-|
口口口① |----|
口③③① |--③-|
28
⑥③③⑥ |①-②-|
⑤②②⑤ |③---|
④①①④ |④-⑤-|
口口口口 |⑥---|
29
口口口口 |①-②-|
④口口④ |③-④-|
③口口③
②①①②

⑤⑤⑤⑤
口口口口
口口⑥口 |⑤-⑥-|
口⑧⑦口 |⑦-⑧-|
30
口口口口 |①---|
口②③④ |②-③-|
①口口⑤ |④-⑤-|
口⑥口口 |--⑥-|
31
③口口口 |①-②-|
口④⑤口 |----|
口②①⑥ |③--④|
口口口口 |⑤-⑥-|
32
②①①④ |----|
②口口④ |①---|
⑤口口③ |②-③-|
⑤口口③ |④-⑤-|
33
⑤①③⑤ |①-②-|
口①③口 |③-④-|
口④②口 |⑤---|
口④②口 |----|
34
口①口⑤ |①-②-|
⑥口②口 |③-④-|
口③口⑦ |--⑤-|
口口④口 |⑥-⑦-|
35
口口口口 |①---|
口口⑤口 |②-③-|
口口④口 |--④-|
①口②③ |--⑤-|
36
⑥⑤口口 |--①-|
⑦④口口 |②-③-|
口③口口 |④-⑤-|
口②①口 |⑥-⑦-|
37
⑤⑤⑤⑤ |①-②-|
口口口口 |③-④-|
④②①③ |⑤---|
④②①③ |----|
38
③③④④ |①---|
口①②口 |②---|
口口口口 |③-④-|
口口口口 |----|
39
口口口口 |①---|
口②①口 |②---|
口③③口 |③---|
口口口口 |----|
40
口①口口 |①---|
口口②口 |②---|
口③口口 |③---|
口口④口 |④---|
41
口口口② |①-②-|
③①①口 |③-④-|
口口口④
口口口口

口口口口
口⑥口口
口口口口 |⑤---|
⑤口口口 |--⑥-|
42
口口口口 |①---|
②口①③ |②---|
口口④口 |③-④-|
口口口口 |----|
43
口①②口 |①---|
口③口口 |②---|
口口④口 |③-④-|
口口口口 |----|
44
口口口口 |①---|
口②②口 |②---|
①④⑤③ |③---|
①⑤④③ |④-⑤-|
45
③口口③ |--①-|
②②①① |②-③-|
口口口口
口口口口

口口口口
口口口⑥
⑤口口口 |--④-|
口口口④ |⑤-⑥-|
46
②①①口 |①---|
②口口口 |--②-|
③④⑤口 |--③-|
③④⑤口 |④-⑤-|
47
口口口口 |①---|
口②②口 |--②-|
口口口① |----|
口口③① |--③-|
48
口口口口 |①---|
口口口口 |②---|
口①口②
②口口口

口口口口
口口口口
③⑤口口 |③---|
口④④③ |④-⑤-|
49
②口口① |①---|
①口口② |②---|
口口口口
口口口口

口口口口
⑥③③口
口口口⑤ |③-④-|
④口口口 |⑤-⑥-|
50
口①①② |①---|
口口口② |--②-|
口⑤④③ |--③-|
口⑤④③ |④-⑤-|
51
口口口口 |①---|
口②②口 |--②-|
①口口口 |----|
①③③口 |--③-|
52
⑥③③⑥ |①-②-|
⑤②②⑤ |③---|
④①①④ |④-⑤-|
口口口口 |⑥---|
53
口口口口 |①-②-|
④口口④ |③-④-|
③口口③
②①①②

⑤⑤⑤⑤
口口口口
口口⑥口 |⑤---|
口⑥口口 |⑥---|
54
口口口口 |①---|
口⑤⑤口 |②---|
①④④① |③-④-|
②③③② |⑤---|
55
①②①② |①---|
⑤口⑤口 |②---|
口④口④ |③-④-|
③口③口 |⑤---|
56
②②①① |①---|
口⑤⑤口 |②---|
口④④口 |③-④-|
口③③口 |⑤---|
57
⑦⑦⑦⑦ |①-②-|
口⑥⑥口 |③-④-|
②⑤⑤④ |⑤-⑥-|
①口口③ |⑦---|
58
口口口口 |①---|
①⑤⑤② |②---|
①④④② |③-④-|
口③③口 |⑤---|
59
②①②① |①---|
⑤口⑤口 |②---|
口④口④ |③-④-|
③口③口 |⑤---|
60
①①②② |①---|
口⑤⑤口 |②---|
口④④口 |③-④-|
口③③口 |⑤---|
61
⑦⑦⑦⑦ |①-②-|
口⑥⑥口 |③-④-|
④⑤⑤② |⑤-⑥-|
③口口① |⑦---|
62
⑥⑥⑥⑥ |①-②-|
④⑥⑥④ |③-④-|
③⑤⑤③ |⑤---|
②①①② |⑥---|


不确定度: 0

最終更新:2012年11月11日 17:45