In Scottish Highlands
Thomas Howard Lichtenstein

EXTREME

Level: 9
BPM: 145
Notes: 693

1
①口口口 |----|
②口口口 |----|
口口口口 |----|
口口口口 |--①②|
2
口口口① |①--②|
口口口② |③④⑤⑥|
⑤口口③
⑥口口④

口口口⑩
口⑨⑨⑪
口⑧⑧口 |⑦-⑧-|
口⑦⑦口 |⑨-⑩⑪|
3
①口口口 |①--②|
②口口口 |③④⑤⑥|
③口口⑤
④口口⑥

⑩口口口
⑪⑨⑨口
口⑧⑦口 |⑦-⑧-|
口⑦⑧口 |⑨-⑩⑪|
4
口口口① |①--②|
口⑨⑨② |③④⑤⑥|
⑤⑧⑧③ |⑦-⑧-|
⑥⑦⑦④ |⑨---|
5
⑩②①口 |①②③④|
③⑨⑨⑧ |⑤⑥⑦⑧|
④⑨⑨⑦ |⑨-⑩-|
⑫⑤⑥⑪ |⑪-⑫-|
6
口①①口 |①---|
口②口口 |--②-|
口口口口
口①①口

口口口口
口口③口
口⑦⑥口 |③-④⑤|
⑧口⑤④ |⑥⑦⑧-|
7
③①①口 |①---|
②④口② |--②-|
①口口① |----|
口②②口 |--③④|
8
口口口口 |①②--|
口口口口 |③---|
口③①口
③口③②

⑤④口④
口⑤④口
口口口口 |④---|
口口口⑥ |⑤-⑥-|
9
口②①口 |①---|
①口口① |②---|
②口口①
口②②口

③口口③
⑥口口口
口③③⑤ |③-④-|
④口口口 |⑤-⑥-|
10
口①①口 |①---|
口②③口 |--②③|
口口口口
口①①口

口口口口
口口口口
口⑦⑥口 |--④⑤|
⑧口⑤④ |⑥⑦⑧-|
11
口①①③ |①---|
②口④② |--②-|
①口口① |----|
口②②口 |--③④|
12
⑤⑧⑤⑧ |①②③④|
⑧⑤⑧⑤ |⑤---|
口①口⑦ |⑥⑦--|
②③⑥④ |⑧---|
13
④口④口 |①-②-|
口③口③ |③-④-|
②口②口
口①口①

口⑥口⑥
⑥口⑥口
⑦⑤⑧⑤ |⑤---|
⑤口⑤口 |⑥-⑦⑧|
14
口口口口 |①---|
④④④④ |②---|
口口口③ |③-④-|
②①口① |----|
15
①①①① |①---|
口口口口 |②---|
口②②口 |③④--|
口③④口 |----|
16
口①③口 |①---|
②⑤②⑤ |②---|
口①③④ |③--④|
口口⑥口 |⑤-⑥-|
17
①口口① |①-②③|
口口口口 |④-⑤-|
②③④⑤
口口口口

口口口口
⑥口口⑥
⑦⑧口口 |⑥---|
口口口口 |--⑦⑧|
18
口口口口 |①---|
④④④④ |②---|
口口口③ |③-④-|
②口①① |----|
19
①①①① |①---|
口口口口 |②---|
②③③② |③④⑤-|
口④⑤口 |----|
20
口①④口 |①-②-|
口⑤②口 |③---|
口③⑥口 |④-⑤-|
口⑦口口 |⑥-⑦-|
21
④口口④ |--①-|
③③②② |②-③-|
①①口口 |--④-|
⑥口口⑤ |⑤-⑥-|
22
口①①口 |①---|
口②口口 |--②-|
口口口口
口①①口

口口口口
口口③口
口⑦⑥口 |③-④⑤|
⑧口⑤④ |⑥⑦⑧-|
23
③①①口 |①---|
②④口② |--②-|
①口口① |----|
口②②口 |--③④|
24
⑤④口④ |①-②-|
口⑤④口 |③---|
口③①口 |④---|
③②③⑥ |⑤-⑥-|
25
口②①口 |①---|
①口口① |②---|
②口口①
口②②口

③口口③
⑥口口口
口③③⑤ |③-④-|
④口口口 |⑤-⑥-|
26
口①①口 |①---|
口②③口 |--②③|
口口口口
口①①口

口口口口
口口口口
口⑦⑥口 |--④⑤|
⑧口⑤④ |⑥⑦⑧-|
27
口①①③ |①---|
②口④② |--②-|
①口口① |----|
口②②口 |--③④|
28
④⑧④⑧ |①②③-|
⑧④⑧④ |④---|
口⑦①⑥ |⑤⑥⑦-|
③②⑤口 |⑧---|
29
④口④口 |①-②-|
口③口③ |③-④-|
②口②口
口①口①

口⑥口口
⑦口口口
⑧⑤口⑤ |⑤-⑥-|
⑤口⑤口 |⑦-⑧-|
30
口口②口 |①---|
口口口③ |②-③-|
口口口口
口①口①

口口口口
口口口口
口口口④ |④-⑤-|
⑤⑥⑤口 |--⑥-|
31
口口口口 |①②③-|
口口口口 |----|
③②①口
口口口口

口口口口
⑦口口④
口⑥⑤口 |④--⑤|
口口口口 |⑥-⑦-|
32
②口①⑥ |----|
③口口⑦ |①---|
④口口⑧ |②③④⑤|
⑤①口⑨ |⑥⑦⑧⑨|
33
口①⑤⑨ |①②③④|
口②⑥口 |⑤⑥⑦⑧|
口③⑦口 |⑨---|
⑨④⑧口 |----|
34
③①④⑤ |①-②-|
⑦⑤③口 |③-④-|
⑥⑤③口 |--⑤-|
口口口② |⑥-⑦-|
35
①①口口 |①---|
口口口口 |②-③-|
口口③② |--④-|
④⑤口① |--⑤-|
36
①口口口 |--①-|
⑦口口② |②-③-|
③口口⑥ |④-⑤-|
⑤口口④ |⑥-⑦-|
37
口口口口 |①②③④|
口⑥⑥⑤ |⑤-⑥-|
口①④口
口③②口

⑦⑦⑦⑦
口口口口
⑧口⑨口 |⑦---|
口口口口 |--⑧⑨|
38
口口口口 |①---|
④④④④ |②---|
口口口③ |③-④-|
②①口① |----|
39
①①①① |①---|
口口口口 |②---|
口②②口 |③④--|
口③④口 |----|
40
口①③口 |①---|
②⑤②⑤ |②---|
口①③④ |③--④|
口口⑥口 |⑤-⑥-|
41
①口口① |①-②③|
口口口口 |④-⑤-|
②③④⑤
口口口口

口口口口
⑥口口⑥
⑦⑧口口 |⑥---|
口口口口 |--⑦⑧|
42
口口口口 |①---|
④④④④ |②---|
口口口③ |③-④-|
②口①① |----|
43
①①①① |①---|
口口口口 |②---|
②③③② |③--④----|
口④口口 |----|
44
口①④口 |①-②-|
口⑤②口 |③---|
口③⑥⑦ |④-⑤⑥|
口⑧口口 |⑦-⑧-|
45
④口口口 |--①-|
③③②② |②-③-|
①①口口 |--④-|
⑥口口⑤ |⑤-⑥-|
46
口①①口 |①---|
口②口口 |--②-|
口口口口
口①①口

口口口口
口口③口
口⑦⑥口 |③-④⑤|
⑧口⑤④ |⑥⑦⑧-|
47
③①①口 |①---|
②④口② |--②-|
①口口① |----|
口②②口 |--③④|
48
口口口口 |①②--|
口口口口 |③---|
口③①口
③口③②

⑤④口④
口⑤④口
口口口口 |④---|
口口口⑥ |⑤-⑥-|
49
口②①口 |①---|
①口口① |②---|
②口口①
口②②口

③口口③
⑥口口口
口③③⑤ |③-④-|
④口口口 |⑤-⑥-|
50
口①①口 |①---|
口②③口 |--②③|
口口口口
口①①口

口口口口
口口口口
口⑦⑥口 |--④⑤|
⑧口⑤④ |⑥⑦⑧-|
51
口①①③ |①---|
②口④② |--②-|
①口口① |----|
口②②口 |--③④|
52
⑤⑧⑤⑧ |①②③④|
⑧⑤⑧⑤ |⑤---|
口①③⑥ |⑥⑦--|
②④⑦口 |⑧---|
53
④口④口 |①-②-|
口③口③ |③-④-|
②口②口
口①口①

口⑦口⑥
口口⑥口
口⑤⑧⑤ |⑤---|
⑤⑥⑤口 |⑥-⑦⑧|
54
口口②口 |①--②|
③口口口 |③④⑤⑥|
⑤口口④
⑥口口①

口口⑩口
⑪⑨⑨口
口⑧⑧口 |⑦-⑧-|
口⑦⑦口 |⑨-⑩⑪|
55
口②口④ |①--②|
口⑥口口 |③④⑤⑥|
口口口①
⑤口口③

口⑩口口
口口⑨⑨
⑧⑧⑪口 |⑦-⑧-|
口⑦⑦口 |⑨-⑩⑪|
56
口口②口 |①--②|
③⑨⑨口 |③④⑤⑥|
⑤⑧⑧④ |⑦-⑧-|
⑥⑦⑦① |⑨---|
57
口口口口 |①②③④|
①口口② |⑤⑥⑦⑧|
③口口④
⑤⑦⑧⑥

⑨⑫口⑨
口⑪⑩⑪
口⑩⑬口 |⑨-⑩-|
口口口口 |⑪-⑫⑬|
58
口口②口 |①--②|
③口口口 |③④⑤⑥|
⑤口口④
⑥口口①

口口⑩口
⑪⑨⑨口
口⑧⑧口 |⑦-⑧-|
口⑦⑦口 |⑨-⑩⑪|
59
口②口④ |①--②|
口⑥口口 |③④⑤⑥|
口口口①
⑤口口③

口⑩口口
口口⑨⑨
⑧⑧⑪口 |⑦-⑧-|
口⑦⑦口 |⑨-⑩⑪|
60
口口②口 |①--②|
③⑨⑨口 |③④⑤⑥|
⑤⑧⑧④ |⑦-⑧-|
⑥⑦⑦① |⑨---|
61
口口口口 |①②③④|
①口口② |⑤⑥⑦⑧|
③口口④
⑤⑦⑧⑥

⑨口口⑨
口⑪⑩⑪
口⑩口口 |⑨-⑩-|
口口口口 |⑪---|
62
口②①口 |①②③④|
③口口⑧ |⑤⑥⑦⑧|
④口口⑦
口⑤⑥口

⑩⑩⑩⑩
口⑨⑨口
口⑨⑨口 |⑨---|
口口口口 |⑩---|


不确定度: 0

最終更新:2012年11月11日 17:42