凛として咲く花の如く
紅色リトマス

BASIC

Level: 4
BPM: 163
Notes: 331

1
口口口口 |----|
口口口口 |----|
口口口口 |----|
口口口口 |----|
2
口口口口 |①---|
口①④口 |②---|
口③②口 |③---|
口口口口 |④---|
3
①口口④ |①---|
口口口口 |②---|
口口口口 |③---|
③口口② |④---|
4
口口口口 |----|
口口口口 |----|
口口口口 |----|
口口口口 |----|
5
①口②口 |①---|
口③口④ |②---|
口口口口 |③---|
口口口口 |④---|
6
口口口口 |①---|
口口口口 |②---|
①口②口 |③-④-|
口⑤④③ |⑤---|
7
口②口① |①---|
④口③口 |②---|
口口口口 |③---|
口口口口 |④---|
8
口口口口 |①---|
口口口口 |②---|
口②口① |③-④-|
③④⑤口 |⑤---|
9
①口口口 |①---|
口③口口 |②---|
②口口口 |③---|
口④口口 |④---|
10
口口①口 |①---|
口口口⑤ |②---|
口口②④ |③-④-|
口口口③ |⑤---|
11
口④口口 |①---|
②口口口 |②---|
口③口口 |③---|
①口口口 |④---|
12
口口口口 |①---|
口口②③ |②---|
口口③口 |③---|
口口①口 |----|
13
口口口口 |①---|
口②口② |----|
口口口口 |②---|
口①口① |----|
14
口口口口 |①---|
口口①口 |②---|
口口②口 |③---|
口口③口 |----|
15
①口①口 |①---|
口口口口 |----|
②口②口 |②---|
口口口口 |----|
16
口口口口 |①---|
口①口口 |----|
口口口口 |----|
口口口口 |----|
17
口①口① |①---|
口口口口 |----|
口②口② |②---|
口口口口 |----|
18
口口①口 |①---|
口口②口 |②---|
口口③口 |③---|
口口口口 |----|
19
口口口口 |①---|
②口②口 |----|
口口口口 |②---|
①口①口 |----|
20
口口口口 |①---|
口口口口 |----|
口①口口 |----|
口口口口 |----|
21
口口口口 |①---|
③口口口 |②---|
口②口口 |③---|
口口①口 |----|
22
口口口口 |①---|
口口口③ |②---|
口口②口 |③---|
口①口口 |----|
23
口口④口 |①---|
口②口口 |②---|
口口③口 |③---|
口①口口 |④---|
24
③口口② |①---|
口口①口 |②---|
口①口口 |③---|
②口口③ |----|
25
口口①口 |①---|
口口口② |②---|
口口③口 |③---|
口口口口 |----|
26
口口口口 |①---|
口③口口 |②---|
②口口口 |③---|
口①口口 |----|
27
口①口口 |①---|
口口②口 |②---|
⑤③口⑤ |③---|
④口口④ |④-⑤-|
28
口口口口 |①---|
①②③① |----|
口③②口 |②---|
口口口口 |③---|
29
③口口② |①---|
①口口口 |②---|
④口口① |③---|
②口口③ |④---|
30
口口口口 |①---|
口②口③ |②---|
口口①口 |③---|
口口口口 |----|
31
口口口口 |①---|
口口②② |----|
①①口口 |②---|
口口口口 |----|
32
口口④口 |①---|
①口口口 |②---|
口口口② |③---|
③口口口 |④---|
33
口口口口 |①---|
①①口口 |②---|
④口③③ |③---|
口②口口 |④---|
34
口口口口 |①---|
口口③② |②---|
口①口口 |③---|
口口口口 |----|
35
①口①口 |①---|
口②口② |----|
口口口口 |②---|
口口口口 |----|
36
口口口口 |①---|
口口口口 |----|
①口①口 |----|
口口口口 |----|
37
口口口口 |①---|
口③③口 |----|
口②②口 |----|
①①①① |②-③-|
38
①口口① |①---|
口口口口 |----|
口口口口 |----|
口口口口 |----|
39
口口口口 |----|
口口口口 |----|
口口口口 |----|
口口口口 |----|
40
①口口② |①---|
③口口④ |②---|
口口口口 |③---|
口口口口 |④---|
41
口口口口 |①---|
口⑤口口 |②---|
①口④② |③-④-|
口③口口 |⑤---|
42
口口口口 |----|
口口口口 |----|
口口口口 |----|
口口口口 |----|
43
①口②口 |①---|
口③口④ |②---|
口口口口 |③---|
口口口口 |④---|
44
口口口口 |①---|
口口口口 |②---|
①口②口 |③-④-|
口⑤④③ |⑤---|
45
口②口① |①---|
④口③口 |②---|
口口口口 |③---|
口口口口 |④---|
46
口口口口 |①---|
口口口口 |②---|
口②口① |③---|
口口③③ |----|
47
①口口口 |①---|
口③口口 |②---|
②口口口 |③---|
口④口口 |④---|
48
口口①口 |①---|
口口口⑤ |②---|
口口②④ |③-④-|
口口口③ |⑤---|
49
口④口口 |①---|
②口口口 |②---|
口③口口 |③---|
①口口口 |④---|
50
口口口口 |①---|
口口②③ |②---|
口口③口 |③---|
口口①口 |----|
51
口口口口 |①---|
①②③④ |②---|
口口口口 |③---|
口口口口 |④---|
52
口口口口 |①---|
口口口口 |②---|
③口②① |③---|
口口口口 |----|
53
口口口口 |①---|
口口口口 |②---|
④③②① |③---|
口口口口 |④---|
54
口口口口 |①---|
①②口③ |②---|
口口口口 |③---|
口口口口 |----|
55
口①口口 |①---|
口②口口 |②---|
口③口口 |③---|
口④口口 |④---|
56
口口③口 |①---|
口口口口 |②---|
口口②口 |③---|
口口①口 |----|
57
口口④口 |①---|
口口③口 |②---|
口口②口 |③---|
口口①口 |④---|
58
口①口口 |①---|
口②口口 |②---|
口口口口 |③---|
口③口口 |----|
59
口①口口 |①---|
口口②口 |②---|
口口口③ |③---|
口口口口 |----|
60
口口①口 |①---|
口②口口 |②---|
③口口口 |③---|
口口口口 |----|
61
口③口口 |①---|
口口②口 |②---|
口④口口 |③---|
口口①口 |④---|
62
②口口③ |①---|
口①口口 |②---|
口口①口 |③---|
③口口② |----|
63
口口口口 |①---|
口③口口 |②---|
②口口口 |③---|
口①口口 |----|
64
口口①口 |①---|
口口口② |②---|
口口③口 |③---|
口口口口 |----|
65
④口口④ |①---|
⑤口③⑤ |②---|
口②口口 |③---|
口口①口 |④-⑤-|
66
口口口口 |①---|
口③②口 |----|
①②③① |②---|
口口口口 |③---|
67
②口口③ |①---|
口④口① |②---|
①口口口 |③---|
③口口② |④---|
68
口口口口 |①---|
口口口① |②---|
③口②口 |③---|
口口口口 |----|
69
口口口口 |①---|
①①口口 |----|
口口②② |②---|
口口口口 |----|
70
口④口口 |①---|
口口口① |②---|
②口口口 |③---|
口口口③ |④---|
71
口口口口 |①---|
④口①① |②---|
③③口口 |③---|
口口②口 |④---|
72
口口口口 |①---|
口①口口 |②---|
口口③② |③---|
口口口口 |----|
73
口口口口 |①---|
口口口口 |----|
②口②口 |②---|
口①口① |----|
74
口口口口 |①---|
口①口① |----|
口③③口 |②---|
口②②口 |③---|
75
③④口③ |①---|
口①①口 |②---|
②口口② |③---|
口口口口 |④---|
76
口口③口 |①---|
口口口口 |②---|
口口口口 |③---|
口②①口 |----|
77
口①口口 |①---|
口口①口 |----|
口②口口 |②---|
口口②口 |----|
78
口口③口 |①---|
④②口口 |②---|
口口①口 |③---|
口口口口 |④---|
79
口④③口 |①---|
口③口口 |②---|
口口①② |③---|
口①口口 |④---|
80
口口口口 |①---|
口口①口 |②---|
口②口口 |③---|
口口③口 |----|
81
①口①口 |①---|
口②口② |----|
口口口口 |②---|
口口口口 |----|
82
口口口口 |①---|
口口口口 |----|
①口①口 |----|
口口口口 |----|
83
口口口口 |①---|
口③③口 |----|
口②②口 |----|
①①①① |②-③-|
84
①口口① |①---|
口口口口 |----|
口口口口 |----|
口口口口 |----|


不确定度: 0

最終更新:2012年11月11日 17:41