凛として咲く花の如く
紅色リトマス

ADVANCED

Level: 7
BPM: 163
Notes: 532

1
口口口口 |----|
口口口口 |----|
口口口口 |----|
口口口口 |----|
2
⑥①口口 |①-②③|
口⑦②口 |④-⑤-|
口③⑧口 |⑥-⑦-|
④口⑤⑨ |⑧-⑨-|
3
口口口① |①-②-|
口口②⑦ |③-④-|
口③⑥口 |⑤-⑥-|
④⑤口口 |⑦---|
4
口口口口 |----|
口口口口 |----|
口口口口 |----|
口口口口 |----|
5
①口①口 |①---|
口②口口 |②---|
③口③口 |③---|
口④口口 |④---|
6
口⑤口口 |①---|
口④口口 |②---|
口③口口 |③-④-|
①口②口 |⑤---|
7
口口④口 |①---|
口③口③ |②---|
口口②口 |③---|
口①口① |④---|
8
口②口① |①---|
口口③口 |②---|
口口④口 |③-④-|
口口⑤口 |⑤---|
9
口口①口 |①---|
口②口③ |②---|
①口④口 |③---|
口③口口 |④---|
10
口口口口 |①---|
口⑤口口 |②---|
口口④① |③-④-|
口口②③ |⑤---|
11
口①口口 |①---|
③口②口 |②---|
口④口① |③---|
口口③口 |④---|
12
④口口口 |①---|
口⑤口口 |②---|
①口口口 |③---|
③②口口 |④-⑤-|
13
口⑤⑥④ |①---|
口口③口 |②-③-|
口②①口 |④---|
口口口口 |⑤-⑥-|
14
口口口口 |①---|
③口口③ |②---|
②口⑤② |③---|
①④口① |④-⑤-|
15
③②②③ |①---|
④①口④ |--②-|
口口口口 |③---|
口口口口 |④---|
16
口口口口 |①---|
口口口口 |----|
①③口① |----|
②口口口 |②-③-|
17
⑦口口⑥ |①---|
口②①口 |②-③-|
口口③口 |④-⑤-|
⑤口口④ |⑥-⑦-|
18
口口口口 |①---|
口③③口 |②---|
口②②口 |③---|
口①①口 |----|
19
口口口① |①---|
②口口口 |②-③-|
口口口③ |④---|
④⑤⑤口 |⑤---|
20
口①①口 |①---|
口口口口 |----|
口口口口 |----|
口口口口 |----|
21
①⑤⑤④ |①-②③|
口③②口 |④-⑤-|
口口口口 |⑥---|
口⑥⑥口 |----|
22
口⑥⑥口 |①-②③|
口口口口 |④-⑤-|
口②③口 |⑥---|
④⑤⑤① |----|
23
口口口口 |①---|
③①②口 |②---|
口②①③ |③---|
口④⑤口 |④-⑤-|
24
口口口口 |①---|
③②口③ |②---|
口口②口 |③---|
①口口① |----|
25
②①口口 |①---|
③口口口 |②---|
口口口③ |③---|
口口①② |----|
26
口口③② |①---|
口口口① |②---|
①口口口 |③---|
②③口口 |----|
27
口①口口 |①---|
⑤②③口 |②---|
④③②⑤ |③---|
口口①④ |④-⑤-|
28
①口口口 |①---|
口②口① |----|
③口②口 |②---|
口③口口 |③---|
29
⑤口①② |①---|
口⑥③① |②-③-|
口④口口 |④---|
口口口口 |⑤-⑥-|
30
口口口口 |①-②-|
口⑦口口 |③-④-|
口口①⑥ |⑤---|
⑤④③② |⑥-⑦-|
31
口口口⑦ |①---|
口⑥①口 |②-③-|
②口⑤口 |④-⑤-|
口④③口 |⑥-⑦-|
32
①④④口 |①---|
⑤口口口 |②-③-|
③⑥口③ |④---|
②口口② |⑤-⑥-|
33
口口口⑤ |①---|
口⑥口② |②-③-|
口口③口 |④---|
口④①口 |⑤-⑥-|
34
②口口口 |①-②-|
口口①口 |③-④-|
⑦④③口 |⑤---|
⑤⑥口⑤ |⑥-⑦-|
35
口口④口 |①---|
口①⑤③ |②-③-|
⑥⑤②⑥ |④---|
口口口口 |⑤-⑥-|
36
①口口① |①---|
口口口口 |----|
口口口口 |----|
口口口口 |----|
37
③口口口 |①---|
口①②口 |----|
口②①口 |----|
口口口③ |②-③-|
38
口口口① |①---|
②口口口 |②--③|
口口口③ |----|
①口口口 |----|
39
①口口口 |①---|
口口口② |②--③|
③口口口 |----|
口口口口 |----|
40
口⑤④口 |①---|
口③⑥口 |②---|
口⑦②口 |③-④⑤|
口①口口 |⑥-⑦-|
41
⑤口口⑤ |①---|
③口口③ |②---|
④口口④ |③-④-|
②口口① |⑤---|
42
口口口口 |----|
口口口口 |----|
口口口口 |----|
口口口口 |----|
43
①口①口 |①---|
口②口口 |②---|
③口③口 |③---|
口④口口 |④---|
44
口⑤口口 |①---|
口④口口 |②---|
口③口口 |③-④-|
①口②口 |⑤---|
45
口口④口 |①---|
口③口③ |②---|
口口②口 |③---|
口①口① |④---|
46
口②口① |①---|
口口口口 |②---|
口③口③ |③---|
口口口口 |----|
47
口口①口 |①---|
口②口③ |②---|
①口④口 |③---|
口③口口 |④---|
48
口口口口 |①---|
口⑤口口 |②---|
口口④① |③-④-|
口口②③ |⑤---|
49
口①口口 |①---|
③口②口 |②---|
口④口① |③---|
口口③口 |④---|
50
口口口口 |①---|
口口口口 |②---|
①口口口 |③---|
③②口口 |----|
51
①口口③ |①---|
口②④口 |②---|
口③①口 |③---|
④口口② |④---|
52
口③③口 |①---|
②口口② |②---|
②口口② |③---|
口①①口 |----|
53
③口口① |①---|
口④②口 |②---|
口①③口 |③---|
②口口④ |④---|
54
口①①口 |①---|
②口口② |②---|
②口口② |③---|
口③③口 |----|
55
①口①口 |①---|
③口③口 |②---|
口②口② |③---|
口④口④ |④---|
56
口口口口 |①---|
口②口② |②---|
③④③④ |③---|
①口①口 |④---|
57
口口口① |①---|
口②口口 |②---|
口口③口 |③---|
④口口口 |④---|
58
②口口口 |①---|
口口口口 |②---|
口③③口 |③---|
口口口① |----|
59
⑤口口④ |①-②③|
口③②口 |④-⑤-|
①口口口 |⑥---|
口⑥⑥口 |----|
60
口⑥⑥口 |①-②③|
口口口① |④-⑤-|
口②③口 |⑥---|
④⑤⑤口 |----|
61
口口口口 |①---|
③①②口 |②---|
口②①③ |③---|
口④⑤口 |④-⑤-|
62
口口口口 |①---|
③②口③ |②---|
口口②口 |③---|
①口口① |----|
63
②①口口 |①---|
③口口口 |②---|
口口口③ |③---|
口口①② |----|
64
口口③② |①---|
口口口① |②---|
①口口口 |③---|
②③口口 |----|
65
口①口口 |①---|
⑤②③口 |②---|
④③②⑤ |③---|
口口①④ |④-⑤-|
66
①口口口 |①---|
口②口① |----|
③口②口 |②---|
口③口口 |③---|
67
⑤口①② |①---|
口⑥③① |②-③-|
口④口口 |④---|
口口口口 |⑤-⑥-|
68
口口口口 |①-②-|
口⑦口口 |③-④-|
口口①⑥ |⑤---|
⑤④③② |⑥-⑦-|
69
口口口⑤ |①---|
口⑥①口 |②-③-|
②口口口 |④---|
口④③口 |⑤-⑥-|
70
②⑤⑤口 |①-②-|
⑥口①口 |③-④-|
④⑦口④ |⑤---|
③口口③ |⑥-⑦-|
71
口口口⑤ |①---|
口⑥口② |②-③-|
口口③口 |④---|
口④①口 |⑤-⑥-|
72
②口口口 |①-②-|
口口①口 |③-④-|
⑦④③口 |⑤---|
⑤⑥口⑤ |⑥-⑦-|
73
口口④口 |①---|
口①⑤③ |②-③-|
⑥⑤②⑥ |④---|
口口口口 |⑤-⑥-|
74
①口口① |①---|
口口口口 |----|
口③③口 |②---|
口②②口 |③---|
75
④⑤口④ |①---|
③①①③ |②-③-|
②⑥口② |④---|
口口口口 |⑤-⑥-|
76
口⑦③口 |①-②-|
口④②⑥ |③-④-|
口口⑤口 |⑤---|
口口①口 |⑥-⑦-|
77
口口口⑤ |①---|
口⑥①口 |②-③-|
②口口口 |④---|
口④③口 |⑤-⑥-|
78
②⑤⑤口 |①-②-|
④口①④ |③-④-|
口⑦⑦口 |⑤---|
③⑥⑥③ |⑥-⑦-|
79
④口⑤④ |①---|
③①①③ |②-③-|
②口⑥② |④---|
口口口口 |⑤-⑥-|
80
口口⑥口 |①-②-|
口②⑤⑦ |③-④-|
口④口口 |⑤---|
口①③口 |⑥-⑦-|
81
口⑥口口 |①---|
口④⑤口 |②-③-|
③⑤①口 |④---|
口②⑥口 |⑤-⑥-|
82
口口口口 |①---|
①口口口 |----|
口口口① |----|
口口口口 |----|
83
口口口口 |①---|
③口口③ |----|
①①①① |----|
②口口② |②-③-|
84
口①①口 |①---|
口①①口 |----|
口口口口 |----|
口口口口 |----|


不确定度: 0

最終更新:2012年11月11日 17:41