凛として咲く花の如く
紅色リトマス

EXTREME

Level: 9
BPM: 163
Notes: 772

1
口口口口 |----|
口口口口 |----|
口口口口 |----|
口口口口 |----|
2
⑨①口⑦ |①-②③|
⑥口②口 |④-⑤-|
口③口⑧ |⑥-⑦-|
⑤口④口 |⑧-⑨-|
3
口⑦⑦口 |①-②-|
口⑥口③ |③-④-|
①口⑥口 |⑤-⑥-|
④⑤⑤② |⑦---|
4
⑤口⑦① |--①②|
②⑥口⑧ |③-④-|
口口⑨③ |--⑤⑥|
口④④⑩ |⑦⑧⑨⑩|
5
口④口⑧ |①-②-|
②口⑥口 |③-④-|
口③口⑦ |⑤-⑥-|
①口⑤口 |⑦-⑧-|
6
①口④口 |①②③-|
②③口⑤ |④-⑤-|
⑥⑦⑥⑦ |⑥-⑦-|
⑧⑧⑧⑧ |⑧---|
7
口②口① |①-②-|
④口③口 |③-④-|
口⑥口⑤ |⑤-⑥-|
⑧口⑦口 |⑦-⑧-|
8
①②⑥口 |①②③-|
口③⑦⑧ |④-⑤-|
④口⑥⑧ |⑥-⑦-|
口⑤⑦口 |⑧---|
9
①③⑤⑦ |①-②-|
①口⑤口 |③-④-|
口④口⑧ |⑤-⑥-|
②④⑥⑧ |⑦-⑧-|
10
口⑦⑥口 |①②③④|
口③⑩① |⑤⑥⑦⑧|
④⑨②口 |⑨-⑩-|
⑪⑤⑧⑪ |⑪---|
11
①口⑤② |①-②-|
⑧③口② |③-④-|
⑧⑥④口 |⑤-⑥-|
口⑥④⑦ |⑦-⑧-|
12
⑤⑨⑨① |①②③④|
⑩⑥②口 |⑤⑥⑦⑧|
口⑪⑦③ |⑨---|
口⑧④口 |⑩-⑪-|
13
④口⑥⑤ |①---|
口③口口 |②-③-|
口口②口 |④---|
①口口口 |⑤-⑥-|
14
口口④口 |①---|
口⑤口② |②---|
①①②口 |③---|
口③③口 |④-⑤-|
15
①口口④ |①---|
口口④口 |--②-|
口口②口 |③---|
③③口口 |④---|
16
口口口口 |①---|
口口口② |----|
①③口① |----|
口口口口 |②-③-|
17
⑥⑦口口 |①---|
口口口口 |②-③-|
口口①口 |④-⑤-|
③②⑤④ |⑥-⑦-|
18
口口口② |①---|
口口②口 |②---|
口①口③ |③---|
口口口③ |----|
19
口②口口 |①---|
口口口③ |②-③-|
①⑤④口 |④---|
口口⑤口 |⑤---|
20
①口口口 |①---|
①口口口 |----|
口口口口 |----|
口口口口 |----|
21
口口⑤口 |①-②③|
口④②④ |④-⑤-|
⑥③⑤口 |⑥---|
口⑥口① |----|
22
口④口口 |①-②③|
⑤②⑤口 |④-⑤-|
口④③⑥ |⑥---|
①口⑥口 |----|
23
②口①口 |①---|
③①③① |②---|
④③①口 |③---|
③⑤③② |④-⑤-|
24
口口②口 |①---|
口①口① |②---|
口口②口 |③---|
③口口③ |----|
25
口①口① |①---|
③②③口 |②---|
②①②① |③---|
③②③口 |----|
26
口①口口 |①---|
③②③口 |②---|
②③②① |③---|
③②③口 |----|
27
①②③④ |①---|
口口⑤③ |②---|
口⑤口② |③---|
④口口① |④-⑤-|
28
①②②口 |①---|
③①口③ |----|
③口①③ |②---|
口②②① |③---|
29
③④④③ |①---|
口①①⑤ |②-③-|
⑥①①口 |④---|
②口口② |⑤-⑥-|
30
⑥⑤⑤口 |①-②-|
②④口口 |③-④-|
口口③① |⑤---|
口⑤⑤⑦ |⑥-⑦-|
31
口口口② |①---|
口③⑥口 |②-③-|
⑦⑤④⑦ |④-⑤-|
①口口口 |⑥-⑦-|
32
④③③④ |①---|
①⑥⑥① |②-③-|
口口口口 |④---|
⑤②②⑤ |⑤-⑥-|
33
⑤②②口 |①---|
①口⑥① |②-③-|
④④④④ |④---|
口③③口 |⑤-⑥-|
34
口口口② |①-②-|
③③⑦口 |③-④-|
口④④⑥ |⑤---|
①口⑤⑤ |⑥-⑦-|
35
⑥口口① |①---|
②口口⑥ |②-③-|
口③⑤口 |④---|
④⑤口口 |⑤-⑥-|
36
口口①口 |①---|
口①口口 |----|
口口口口 |----|
口口口口 |----|
37
②口①口 |①---|
口①①③ |----|
③①①口 |----|
口①口② |②-③-|
38
口②口口 |①---|
①口口口 |②--③|
口口口① |----|
口口③口 |----|
39
口口口口 |①---|
①②口③ |②--③|
③口②① |----|
口口口口 |----|
40
①口口口 |①---|
口口①② |②---|
口②口口
口口口口

⑦口口⑥
口⑤口口
③口口④ |③-④⑤|
口口③口 |⑥-⑦-|
41
⑤口口⑤ |①---|
②④④② |②---|
③口口③ |③-④-|
①口口① |⑤---|
42
口口口口 |----|
口口口口 |----|
口口口口 |----|
口口口口 |----|
43
口④口⑧ |①-②-|
②口⑥口 |③-④-|
口③口⑦ |⑤-⑥-|
①口⑤口 |⑦-⑧-|
44
①口④口 |①②③-|
②③口⑤ |④-⑤-|
⑥⑦⑥⑦ |⑥-⑦-|
⑧⑧⑧⑧ |⑧---|
45
口②口① |①-②-|
④口③口 |③-④-|
口⑥口⑤ |⑤-⑥-|
⑧口⑦口 |⑦-⑧-|
46
①②⑥口 |①②③-|
口③⑥口 |④-⑤-|
④口口⑥ |⑥---|
口⑤口⑥ |----|
47
①③⑤⑦ |①-②-|
①口⑤口 |③-④-|
口④口⑧ |⑤-⑥-|
②④⑥⑧ |⑦-⑧-|
48
口⑦⑥口 |①②③④|
口③⑩① |⑤⑥⑦⑧|
④⑨②口 |⑨-⑩-|
⑪⑤⑧⑪ |⑪---|
49
①口⑤② |①-②-|
⑧③口② |③-④-|
⑧⑥④口 |⑤-⑥-|
口⑥④⑦ |⑦-⑧-|
50
⑤⑨⑨① |①②③④|
口⑥②口 |⑤⑥⑦⑧|
口口⑦③ |⑨---|
口⑧④口 |----|
51
⑧口口口 |①-②-|
口口①⑤ |③-④-|
⑥④口⑦ |⑤-⑥-|
②口口③ |⑦-⑧-|
52
口口⑤① |①-②-|
②口口口 |③-④-|
⑥⑧③口 |⑤-⑥-|
④口⑦口 |⑦-⑧-|
53
口口口⑦ |①-②-|
⑥②③口 |③-④-|
⑧口⑤① |⑤-⑥-|
④口口口 |⑦-⑧-|
54
④口口口 |①-②-|
口②口口 |③-④-|
口口口③ |⑤---|
⑤口①⑤ |----|
55
口⑧口① |①-②-|
口②⑦⑤ |③-④-|
口④口口 |⑤-⑥-|
⑥口③口 |⑦-⑧-|
56
④口口口 |①-②-|
口⑥口口 |③-④-|
②口⑦⑤ |⑤-⑥⑦|
口⑧③① |⑧---|
57
⑩口⑨⑤ |①-②-|
⑥⑫口① |③-④-|
②④⑦⑪ |⑤⑥⑦⑧|
口⑧口③ |⑨⑩⑪⑫|
58
口④口⑦ |①②③④|
⑨口③⑨ |⑤⑥⑦⑧|
②⑥口口 |⑨---|
⑧口①⑤ |----|
59
①③口口 |①-②-|
④②④口 |③-④-|
口③口⑤ |⑤---|
口口⑤口 |----|
60
⑤③口口 |①-②-|
④⑤④口 |③-④-|
口③②口 |⑤---|
口口口① |----|
61
口②①口 |①---|
③口③① |②---|
④③口② |③---|
③⑤③口 |④-⑤-|
62
口口②口 |①---|
口①口① |②---|
口口②口 |③---|
③口口③ |----|
63
口①口① |①---|
③②③口 |②---|
②①②① |③---|
③②③口 |----|
64
口①口口 |①---|
③②③口 |②---|
②③②① |③---|
③②③口 |----|
65
①②③④ |①---|
口口⑤③ |②---|
口⑤口② |③---|
④口口① |④-⑤-|
66
①②②口 |①---|
③①口③ |----|
③口①③ |②---|
口②②① |③---|
67
②④④② |①---|
口①①⑥ |②-③-|
⑤①①口 |④---|
③口口③ |⑤-⑥-|
68
⑦⑤⑤口 |①-②-|
①③口口 |③-④-|
口口④② |⑤---|
口⑤⑤⑥ |⑥-⑦-|
69
口口口① |①---|
口④③口 |②-③-|
口⑥⑤口 |④---|
②口口口 |⑤-⑥-|
70
⑥③③⑥ |①-②-|
①⑤⑤① |③-④-|
②⑦⑦② |⑤---|
④口口④ |⑥-⑦-|
71
口③③口 |①---|
④④④④ |②-③-|
①⑥口① |④---|
口②②⑤ |⑤-⑥-|
72
⑤⑤口口 |①-②-|
⑥④④口 |③-④-|
口⑦③③ |⑤---|
①口②口 |⑥-⑦-|
73
口口⑤④ |①---|
口⑤③口 |②-③-|
⑥口口② |④---|
①口口⑥ |⑤-⑥-|
74
②②③③ |①---|
口口口口 |----|
口①②② |②---|
③③①口 |③---|
75
④④⑥口 |①---|
①①②③ |②-③-|
③②④④ |④---|
⑤口①① |⑤-⑥-|
76
口口口口 |①-②-|
③①口③ |③-④-|
口口口口
口④④②

⑤口口⑤
口⑦口口
口口⑥口 |⑤---|
口口口口 |⑥-⑦-|
77
④⑤⑤③ |①---|
口口①口 |②-③-|
口②口口 |④---|
口⑥⑥口 |⑤-⑥-|
78
⑤⑦⑦口 |①-②-|
①②③④ |③-④-|
④③②① |⑤---|
口⑥⑥⑤ |⑥-⑦-|
79
④⑥⑥④ |①---|
①④④② |②-③-|
②③③① |④---|
⑤口口⑤ |⑤-⑥-|
80
④⑦口④ |①-②-|
⑤⑤⑤⑤ |③-④-|
②③③② |⑤---|
口①①⑥ |⑥-⑦-|
81
口⑥①口 |①---|
⑤口⑥口 |②-③-|
口④口⑤ |④---|
②口③口 |⑤-⑥-|
82
口口①口 |①---|
口①口口 |----|
口口口口 |----|
口口口口 |----|
83
口①口口 |①---|
口①①口 |----|
口①①口
口口①口

③③②②
口口口口
口口口口 |----|
②②③③ |②-③-|
84
口口口口 |①---|
口①①口 |----|
口①①口 |----|
口口口口 |----|


不确定度: 0

最終更新:2012年11月11日 17:41