Polaris
Mutsuhiko Izumi

BASIC

Level: 2
BPM: 180
Notes: 202

1
口口口口 |----|
口口口口 |----|
口口口口 |----|
口口口口 |----|
2
口口口口 |①---|
口口口口 |----|
口②口口 |②---|
口①口口 |----|
3
口②口口 |①---|
口①口口 |----|
口口口口 |②---|
口口口口 |----|
4
口口口口 |①---|
口口口口 |----|
口口②口 |②---|
口口①口 |----|
5
口口②口 |①---|
口口①口 |----|
口口口口 |②---|
口口口口 |----|
6
口口口口 |①---|
①②口口 |----|
口口口口 |②---|
口口口口 |----|
7
口口口口 |①---|
口口①② |----|
口口口口 |②---|
口口口口 |----|
8
口口口口 |①---|
口口口口 |----|
①②口口 |②---|
口口口口 |----|
9
口口口口 |①---|
口口口口 |----|
口口①② |②---|
口口口口 |----|
10
口口口口 |①---|
②①①口 |----|
口口口口 |②---|
口口口口 |----|
11
口②②口 |①---|
口口口① |----|
口口口口 |②---|
口口口口 |----|
12
口口口口 |①---|
口口口口 |----|
②①①口 |②---|
口口口口 |----|
13
口口口口 |①---|
口口口口 |----|
口口口① |②---|
口②②口 |----|
14
口口口口 |①---|
口①①口 |----|
③口口口 |②---|
②口口口 |③---|
15
口口口口 |①---|
①口口口 |----|
口口口③ |②---|
口口口② |③---|
16
口口口口 |①---|
口口口① |----|
口②②口 |②---|
口口口口 |----|
17
口口口口 |----|
口口口口 |----|
口①②口 |①---|
口口口口 |②---|
18
口口口口 |①---|
口①①口 |----|
③口口口 |②---|
②口口口 |③---|
19
口口口口 |①---|
①口口③ |----|
口口口② |②---|
口口口口 |③---|
20
口口口① |①---|
口②②口 |----|
口口口口 |②---|
口口口口 |----|
21
口口口口 |①---|
口口口口 |----|
口①①口 |②---|
口②②口 |----|
22
口口口口 |①---|
口口口口 |----|
①口口① |----|
口口口口 |----|
23
口口口口 |①---|
①口口① |----|
口口口口 |----|
口口口口 |----|
24
①①①① |①---|
口口口口 |----|
口口口口 |----|
口口口口 |----|
25
口口口口 |----|
口口口口 |----|
口口口口 |----|
口口口口 |----|
26
口口口口 |①---|
口口口口 |----|
口口口口 |----|
口①①口 |----|
27
口口口口 |①---|
口口口口 |----|
口①①口 |----|
口口口口 |----|
28
口口口口 |①---|
口①①口 |----|
口口口口 |----|
口口口口 |----|
29
①①②② |①---|
口口口口 |--②-|
口口口口 |----|
口口口口 |----|
30
口口口口 |①---|
口口口口 |----|
口口口口 |----|
口①①口 |----|
31
口口口口 |①---|
口口口口 |----|
口①①口 |----|
口口口口 |----|
32
口口口口 |①---|
口①①口 |----|
口口口口 |----|
口口口口 |----|
33
口口口口 |----|
口口口口 |①---|
口②②口 |--②-|
口①①口 |----|
34
口口口口 |①---|
口①①口 |----|
口口口口 |----|
口口口口 |----|
35
口口口口 |①---|
①口口口 |----|
①口口口 |----|
口口口口 |----|
36
口口口口 |①---|
口口口① |----|
口口口① |----|
口口口口 |----|
37
口口口口 |①---|
口①②口 |--②-|
口口口口 |----|
口口口口 |----|
38
口口口口 |①---|
口口口口 |----|
口口口口 |----|
口①①口 |----|
39
口口口口 |①---|
口口口口 |----|
口①口口 |----|
口口口口 |----|
40
口口口口 |①---|
口口口口 |----|
口口①口 |----|
口口口口 |----|
41
口口口口 |①---|
①①口口 |----|
口口口口 |----|
口口口口 |----|
42
口口口口 |①---|
口口①① |----|
口口口口 |----|
口口口口 |----|
43
②①①② |①---|
口口口口 |--②-|
口口口口 |----|
口口口口 |----|
44
口口口口 |①---|
①②口口 |----|
口口口口 |②---|
口口口口 |----|
45
口口口口 |①---|
口口①② |----|
口口口口 |②---|
口口口口 |----|
46
口口口口 |①---|
口口口口 |----|
口口②① |②---|
口口口口 |----|
47
口口口口 |①---|
口口口口 |----|
②①口口 |②---|
口口口口 |----|
48
口口口口 |①---|
①①②② |----|
口口口口 |②---|
口口口口 |----|
49
口口口口 |①---|
口口口口 |----|
①①②② |②---|
口口口口 |----|
50
口口口口 |①---|
口口口口 |----|
口口口口 |----|
口①①口 |----|
51
口口口口 |①---|
口④④口 |②---|
②③③② |③---|
①口口① |④---|
52
①口口② |①---|
口口口口 |----|
口口口口 |②---|
口口口口 |----|
53
口口口口 |①---|
口①②口 |----|
口口口口 |②---|
口口口口 |----|
54
口口口口 |①---|
口口口口 |----|
口口口口 |②---|
①口口② |----|
55
口口口口 |①---|
口口口口 |----|
口①②口 |②---|
口口口口 |----|
56
②口口④ |①---|
口①③口 |②---|
口口口口 |③---|
口口口口 |④---|
57
口口口口 |①---|
口口口口 |②---|
口①③口 |③---|
②口口④ |④---|
58
口口口口 |①---|
①①①① |----|
口口口口 |----|
口口口口 |----|
59
口口口口 |----|
口口口口 |----|
口口口口 |----|
口口口口 |----|
60
口口口口 |①---|
口口口口 |----|
口口口口 |②---|
口①②口 |----|
61
口口口口 |①---|
口口口口 |----|
①口口② |②---|
口口口口 |----|
62
口口口口 |①---|
口口口口 |②---|
①②③④ |③---|
口口口口 |④---|
63
口口口口 |①---|
④③②① |②---|
口口口口 |③---|
口口口口 |④---|
64
口①②口 |①---|
口口口口 |----|
口口口口 |②---|
口口口口 |----|
65
口口口口 |①---|
①口口② |----|
口口口口 |②---|
口口口口 |----|
66
口口口口 |①---|
口①①口 |----|
口口口口 |----|
口口口口 |----|
67
口口口口 |①---|
口口口口 |----|
口①①口 |----|
口口口口 |----|
68
口口口口 |①---|
①口口口 |----|
口口口口 |----|
口口口口 |----|
69
口口口口 |①---|
口口口① |----|
口口口口 |----|
口口口口 |----|
70
口口口口 |①---|
口口口口 |----|
口口口口 |----|
口①①口 |----|
71
口口口口 |①---|
口口口口 |----|
口①①口 |----|
口口口口 |----|
72
口口口口 |①---|
口①①口 |----|
口口口口 |----|
口口口口 |----|
73
口①①口 |①---|
口口口口 |--②-|
②②②② |----|
口口口口 |----|
74
口口口口 |①---|
口口口口 |----|
②口口口 |②---|
①口口口 |----|
75
②口口口 |①---|
①口口口 |----|
口口口口 |②---|
口口口口 |----|
76
口口口口 |①---|
口口口口 |----|
口口口② |②---|
口口口① |----|
77
口口口② |①---|
口口口① |----|
口口口口 |②---|
口口口口 |----|
78
口口口口 |①---|
口口口口 |----|
口②口口 |②---|
口①口口 |----|
79
口②口口 |①---|
口①口口 |----|
口口口口 |②---|
口口口口 |----|
80
口口口口 |①---|
口口口口 |----|
口口②口 |②---|
口口①口 |----|
81
口口②口 |①---|
口口①口 |----|
口口口口 |②---|
口口口口 |----|
82
口口口口 |----|
口口口口 |----|
口口口口 |----|
口口口口 |----|
83
口口口口 |①---|
口②②口 |--②-|
口①①口 |----|
口口口口 |----|


不确定度: 0

最終更新:2012年11月11日 17:40