LUV CAN SAVE U
HIDEKI NAGANUMA

EXTREME

Level: 9
BPM: 140
Notes: 922

1
口口口口 |----|
口口口口 |----|
口口口口 |----|
口口口口 |----|
2
口口②口 |①--②|
口①口① |③-④-|
③④②口
④③口口

口口口⑤
口⑥口⑥
口口口⑤ |--⑤-|
口口口口 |-⑥--|
3
口②口口 |①--②|
①口①口 |③-④-|
口②④③
口口③④

口⑥口口
⑤口口口
口⑥口口 |--⑤-|
⑤口口口 |-⑥--|
4
口口③④ |①--②|
⑥②④③ |③-④-|
①⑤①⑤ |--⑤-|
⑥②口口 |-⑥--|
5
③⑥②⑥ |①--②|
⑤①④① |③-④-|
③④②⑤ |--⑤-|
⑥口⑥口 |⑥---|
6
①口②口 |①--②|
④②口① |③-④-|
①口口口
口③口①

⑧口口口
口口⑥口
⑧⑥口口 |⑤-⑥-|
口口⑤⑦ |⑦⑧--|
7
口口口① |①--②|
④②口口 |③-④-|
口口②①
①③口口

口⑥口口
口⑧⑥口
⑧口口口 |⑤-⑥-|
口口⑤⑦ |⑦⑧--|
8
口④①口 |①--②|
口口口② |③-④-|
口②①口
①③口口

⑧口口口
口⑥口口
口⑧口⑥ |⑤-⑥-|
口口⑤⑦ |⑦⑧--|
9
口口①① |①--②|
②口口口 |③-④-|
④口②口
①③口口

口⑧口口
⑩口⑥⑨
口⑥口口 |⑤-⑥-|
口口⑤⑦ |⑦⑧⑨⑩|
10
④口②口 |①--②|
口②口口 |③-④-|
口口①①
①③口口

口口口口
口⑧⑥口
⑧口口⑥ |⑤-⑥-|
口口⑤⑦ |⑦⑧--|
11
口口②口 |①--②|
④口口① |③-④-|
口②①口
①③口口

⑧⑧口口
口口口⑥
⑥口口口 |⑤-⑥-|
口口⑤⑦ |⑦⑧--|
12
口口③② |①--②|
①②①③ |--③-|
③①②①
②③口口

口口口⑥
⑤口口口
口口⑥④ |--④-|
口口口口 |⑤⑥--|
13
②④①口 |①--②|
④③②① |③-④-|
①②口④
口①④②

口口⑥口
口口⑧口
⑦口⑥口 |-⑤⑥-|
⑤口口⑧ |⑦⑧--|
14
②①④⑤ |①-②-|
①②⑤④ |③④-⑤|
口口口口
③口口口

口⑨口口
⑧口口口
⑥⑦口口 |⑥-⑦-|
口口口口 |⑧-⑨-|
15
口口口③ |①-②-|
口口口口 |③④-⑤|
④⑤②①
⑤④①②

⑦口口口
口口口⑥
口口口⑧ |⑥-⑦-|
口口⑨口 |⑧-⑨-|
16
④⑤②① |①-②-|
⑤④①② |③④-⑤|
口口口口
口口口③

口口⑨口
口口口⑧
口口口⑥ |⑥-⑦-|
口口⑦口 |⑧-⑨-|
17
③口口口 |①-②-|
口口口口 |③④-⑤|
②①④⑤
①②⑤④

口⑦口口
⑥⑩口⑧
口口口口 |⑥-⑦-|
⑨口口口 |⑧-⑨⑩|
18
④⑤②① |①-②-|
口口③口 |③④-⑤|
⑤④①②
口口口口

口口口⑦
口口口口
口口⑧⑨ |⑥-⑦-|
口口⑥口 |⑧-⑨-|
19
口口口口 |①-②-|
②①④⑤ |③④-⑤|
口③口口
①②⑤④

口⑥⑦口
⑧口口口
口口口口 |⑥-⑦-|
口⑨口口 |⑧-⑨-|
20
①②④⑤ |①-②-|
口③口口 |③④-⑤|
②①⑤④
口口口口

⑦口口口
口口口口
⑨⑧口口 |⑥-⑦-|
口⑥口口 |⑧-⑨-|
21
口口口口 |①-②-|
④口②① |③④--|
口口③口
口④①②

口⑤⑤口
口⑥口⑦
口⑧口⑨ |⑤-⑥⑦|
⑩口口口 |⑧⑨⑩-|
22
④⑪口口 |①-②③|
⑤口③⑩ |④-⑤⑥|
②⑦⑥口 |-⑦⑧-|
⑨①①⑧ |⑨⑩⑪-|
23
口口⑪④ |①-②③|
⑩③⑤口 |④-⑤⑥|
⑥口⑦② |-⑦⑧-|
⑧①①⑨ |⑨⑩⑪-|
24
④⑪口口 |①-②③|
口⑤③⑩ |④-⑤⑥|
②⑦口⑥ |-⑦⑧-|
⑨①①⑧ |⑨⑩⑪-|
25
口口④④ |①-②③|
③口⑤口 |④-⑤⑥|
口⑥口② |⑦---|
口①①⑦ |----|
26
②④口口 |①-②③|
④口⑤口 |④⑤⑥⑦|
口口③⑦
①⑥①口

⑫口口口
口⑧口⑨
⑧⑩口口 |⑧⑨⑩-|
⑩口口⑪ |⑪-⑫-|
27
口口④口 |①-②③|
⑦③口④ |④⑤⑥⑦|
⑤口口②
口①①⑥

口口⑫⑧
口口⑩口
口⑨⑧⑪ |⑧⑨⑩-|
口口口口 |⑪-⑫-|
28
口④口口 |①-②③|
④口⑤③ |④⑤⑥⑦|
②口⑦口
⑥①①口

⑧口口⑫
口⑧口口
口⑩口⑪ |⑧⑨⑩-|
口⑩口⑨ |⑪-⑫-|
29
口⑦②口 |①-②③|
③口口⑥ |④⑤⑥⑦|
口口④口
①⑤①④

口口⑪⑩
口⑫⑧口
⑨⑭口⑧ |⑧⑨⑩-|
口口口⑬ |⑪⑫⑬⑭|
30
②④口口 |①-②③|
④口⑤口 |④⑤⑥⑦|
口口③⑦
①⑥①口

⑫口口口
口⑧口⑨
⑧⑩口口 |⑧⑨⑩-|
⑩口口⑪ |⑪-⑫-|
31
口口④口 |①-②③|
⑦③口④ |④⑤⑥⑦|
⑤口口②
口①①⑥

口口⑫⑧
口口⑩口
口⑨⑧⑪ |⑧⑨⑩-|
口口口口 |⑪-⑫-|
32
口②口② |①--②|
③①③① |--③-|
②口②口
①③①③

口口口口
口④口④
口④口④ |----|
口口口口 |④---|
33
口①口① |①---|
口口口口 |----|
口口口口
①口①口

口口口口
口口口口
口口口口 |----|
②口口② |②---|
34
①①①① |①-②-|
③⑤口口 |③④-⑤|
②②口口 |----|
口④口口 |----|
35
①口①① |①-②-|
⑤口⑥③ |③④⑤⑥|
⑦口②② |----|
口口④口 |⑦---|
36
③⑤口口 |①-②-|
①①口口 |③④-⑤|
口④口口 |----|
②②口① |----|
37
①口⑥③ |①-②-|
⑤口①① |③④⑤⑥|
口口④口 |----|
⑦口②② |⑦---|
38
①①口① |①-②-|
③⑤口口 |③④-⑤|
②②口口 |----|
口④口口 |----|
39
口口①① |①-②-|
口口⑤③ |③④-⑤|
口①②② |----|
口口④口 |----|
40
③⑤口口 |①-②-|
①①口口 |③④-⑤|
口④①口 |----|
②②口口 |----|
41
①口⑤③ |①-②-|
口口①① |③④-⑤|
口口④口
口口②②

⑪⑥口口
⑨口⑩口
口口口⑧ |⑥-⑦⑧|
口⑦口口 |⑨⑩⑪-|
42
口③口③ |①-②-|
口①口① |③④-⑤|
②⑤②⑤
④口④口

口⑧口口
口口口⑦
口口口口 |--⑥-|
口⑥口口 |⑦-⑧-|
43
③口③口 |①-②-|
①口①口 |③④-⑤|
⑤②⑤②
口④口④

口口⑧口
口⑦口口
口口口口 |--⑥-|
口口⑥口 |⑦-⑧-|
44
①①口口 |①-②-|
口⑤③③ |③④-⑤|
②②⑤口
口口④④

口⑦口口
口口口口
⑥口口口 |----|
口口口口 |⑥-⑦-|
45
口⑧①① |①-②-|
③③⑤口 |③④-⑤|
⑦⑤②② |--⑥-|
④④⑥口 |⑦-⑧-|
46
口口①① |①-②-|
⑤③③⑤ |③④-⑤|
口口②②
①④④口

口口口口
口口口口
口口口口 |--⑥-|
⑦口口⑥ |-⑦--|
47
①①口口 |①-②-|
⑤③③⑤ |③④-⑤|
②②口① |--⑥-|
⑥④④⑦ |-⑦--|
48
①①口① |①-②-|
口③③口 |③④-⑤|
②口口②
⑤④④⑤

口口口口
口口口口
⑦口⑥口 |--⑥-|
口口口口 |-⑦--|
49
口③③① |①-②-|
①口口① |③④--|
口④④口
②口口②

⑦口口口
口⑤⑤⑧
⑨口口口 |⑤-⑥-|
口⑥⑥口 |⑦⑧⑨-|
50
⑤①①口 |①-②③|
口②⑥口 |④-⑤⑥|
口口③口
④口口口

口口⑩口
⑪⑫口口
⑫⑦口口 |⑦⑧⑨⑩|
口⑨口⑧ |⑪-⑫-|
51
口口⑤口 |①-②③|
⑥口②① |④-⑤⑥|
口③①口
口口口④

口⑩口⑨
口口口⑫
口口⑪⑦ |⑦⑧⑨⑩|
口⑧⑫口 |⑪-⑫-|
52
①⑤口口 |①-②③|
口②⑥口 |④-⑤⑥|
口①口③
④口口口

口口口⑪
⑨口口口
⑦⑩口口 |⑦⑧⑨⑩|
⑫⑫⑧口 |⑪-⑫-|
53
口口②口 |①-②③|
口③口① |④-⑤⑥|
⑤口①④
口口口⑥

口⑨口口
⑨⑩⑧口
口⑦⑩口 |-⑦⑧-|
口口口口 |⑨-⑩-|
54
③③②⑥ |①---|
口⑦④④ |②-③④|
⑤⑤口口 |⑤---|
口①①⑧ |⑥⑦⑧-|
55
②④口口 |①-②③|
④口⑤口 |④⑤⑥⑦|
口口③⑦
①⑥①口

⑫口口口
口⑧口⑨
⑧⑩口口 |⑧⑨⑩-|
⑩口口⑪ |⑪-⑫-|
56
口口④口 |①-②③|
⑦③口④ |④⑤⑥⑦|
⑤口口②
口①①⑥

口口⑫⑧
口口⑩口
口⑨⑧⑪ |⑧⑨⑩-|
口口口口 |⑪-⑫-|
57
口④口口 |①-②③|
④口⑤③ |④⑤⑥⑦|
②口⑦口
⑥①①口

⑧口口⑫
口⑧口口
口⑩口⑪ |⑧⑨⑩-|
口⑩口⑨ |⑪-⑫-|
58
口⑦②口 |①-②③|
③口口⑥ |④⑤⑥⑦|
口口④口
①⑤①④

口口⑪⑩
口⑫⑧口
⑨⑭口⑧ |⑧⑨⑩-|
口口口⑬ |⑪⑫⑬⑭|
59
②④口口 |①-②③|
④口⑤口 |④⑤⑥⑦|
口口③⑦
①⑥①口

⑫口口口
口⑧口⑨
⑧⑩口口 |⑧⑨⑩-|
⑩口口⑪ |⑪-⑫-|
60
口口④口 |①-②③|
⑦③口④ |④⑤⑥⑦|
⑤口口②
口①①⑥

口口⑫⑧
口口⑩口
口⑨⑧⑪ |⑧⑨⑩-|
口口口口 |⑪-⑫-|
61
口②口② |①--②|
③①③① |--③-|
②口②口
①③①③

④口④口
口⑤口⑤
口④口④ |--④-|
⑤口⑤口 |-⑤--|
62
口口③口 |①--②|
①口①口 |③-④-|
②④②④
口①口①

口⑥口⑥
⑤口⑤口
口口口口 |--⑤-|
⑥口⑥口 |⑥---|
63
①口②口 |①--②|
④②口① |③-④-|
①口口口
口③口①

⑧口口口
口口⑥口
⑧⑥口口 |⑤-⑥-|
口口⑤⑦ |⑦⑧--|
64
口口口① |①--②|
④②口口 |③-④-|
口口②①
①③口口

口⑥口口
口⑧⑥口
⑧口口口 |⑤-⑥-|
口口⑤⑦ |⑦⑧--|
65
口④①口 |①--②|
口口口② |③-④-|
口②①口
①③口口

⑧口口口
口⑥口口
口⑧口⑥ |⑤-⑥-|
口口⑤⑦ |⑦⑧--|
66
口口①① |①--②|
②口口口 |③-④-|
④口②口
①③口口

口⑧口口
⑩口⑥⑨
口⑥口口 |⑤-⑥-|
口口⑤⑦ |⑦⑧⑨⑩|
67
④口②口 |①--②|
口②口口 |③-④-|
口口①①
①③口口

口口口口
口⑧⑥口
⑧口口⑥ |⑤-⑥-|
口口⑤⑦ |⑦⑧--|
68
口口②口 |①--②|
④口口① |③-④-|
口②①口
①③口口

⑧⑧口口
口口口⑥
⑥口口口 |⑤-⑥-|
口口⑤⑦ |⑦⑧--|
69
口口口① |①-②-|
②①③口 |③-④-|
④②①③
①④口口

⑥口⑤口
口⑥口⑤
口口⑦口 |⑤-⑥-|
口口口⑦ |-⑦--|
70
③③③② |①---|
①口口口 |②---|
口①口口 |----|
口③③③ |③---|
71
口口口① |①---|
①口口① |----|
①口口① |----|
①口口口 |----|


不确定度: 0

タグ:

+ タグ編集
  • タグ:

このサイトはreCAPTCHAによって保護されており、Googleの プライバシーポリシー利用規約 が適用されます。

最終更新:2012年12月27日 16:36