Polaris
Mutsuhiko Izumi

ADVANCED

Level: 5
BPM: 180
Notes: 330

1
口口口口 |----|
口口口口 |----|
口口口口 |----|
口口口口 |----|
2
①口口口 |①---|
②口口口 |②---|
口④⑤口 |③-④-|
口③口口 |--⑤-|
3
口③口⑥ |①---|
口②①⑤ |②-③-|
口口口④ |--④-|
口口口口 |⑤-⑥-|
4
口口口口 |①---|
口口口口 |②---|
②④⑤口 |③-④-|
①③口口 |--⑤-|
5
口口口口 |①---|
口口口口 |----|
口口口口 |----|
口口①口 |----|
6
口口口口 |①---|
口口口口 |②---|
②④⑤口 |③-④-|
①③口口 |--⑤-|
7
口③口⑥ |①---|
口②①⑤ |②-③-|
口口口④ |--④-|
口口口口 |⑤-⑥-|
8
口⑤⑤口 |①---|
口口口口 |②---|
口④④口 |③-④-|
①③③② |--⑤-|
9
口口口口 |①---|
口①②口 |②---|
口③④口 |③---|
口口口口 |④---|
10
②③口口 |①---|
④⑤口口 |----|
口口口口 |②-③-|
口①①口 |④-⑤-|
11
口口口④ |①---|
口口口③ |--②-|
①口口② |③-④-|
口口口口 |----|
12
口口②① |----|
口口④③ |----|
口口口口 |①-②-|
口口口口 |③-④-|
13
口口口口 |①---|
口口口口 |--②-|
口口②① |----|
口口口口 |----|
14
②③口口 |①---|
④⑤口口 |----|
口口口口 |②-③-|
口①①口 |④-⑤-|
15
口口③② |①---|
口口⑤④ |----|
①口口口 |②-③-|
口口口口 |④-⑤-|
16
口口口口 |①---|
口口口口 |--②-|
口②③① |③---|
口口口口 |----|
17
口口口口 |----|
口①①口 |----|
口口口口 |①---|
口②②口 |②---|
18
②③口口 |①---|
④⑤口口 |----|
口①①口 |②-③-|
口口口口 |④-⑤-|
19
口口口口 |①---|
口口口④ |----|
①口口③ |--②-|
口口口② |③-④-|
20
口口口① |①---|
口②②口 |--②-|
口③口口 |----|
口口口口 |--③-|
21
口口口口 |①---|
口口口口 |--②-|
口口①口 |----|
口②②口 |----|
22
口口口口 |①---|
口口口口 |--②-|
③①①③ |----|
②②②② |③---|
23
口口口口 |①---|
①①①① |----|
口口口口 |----|
口口口口 |----|
24
口口口口 |①---|
①①①① |----|
口口口口 |----|
口口口口 |----|
25
⑤口口⑤ |①---|
④口口④ |②---|
③口口③ |③-④-|
②②①① |⑤---|
26
口①①口 |①---|
④口口口 |----|
口口口③ |--②-|
②口口口 |③-④-|
27
口口口① |①---|
口④口口 |----|
口口③口 |--②-|
口②口口 |③-④-|
28
口口①口 |①---|
口口口口 |----|
口口口口 |----|
口口口口 |----|
29
口口口口 |①---|
②口口② |--②-|
①口口① |----|
口口口口 |----|
30
口口口口 |①---|
②③④口 |----|
口①①口 |--②-|
口口口口 |③-④-|
31
口口口口 |①---|
口口口① |----|
口口③② |----|
口口口口 |②-③-|
32
口口口口 |①---|
口口口口 |----|
口①口口 |----|
口口口口 |----|
33
口口口口 |----|
①①②② |①---|
口口口口 |--②-|
口口口口 |----|
34
口口口口 |①---|
②③④口 |----|
口①①口 |--②-|
口口口口 |③-④-|
35
口口口口 |①---|
口口口① |----|
口④③② |--②-|
口口口口 |③-④-|
36
口口口口 |①---|
口口口口 |----|
①口口口 |----|
口口口口 |----|
37
口口口口 |①---|
口②②口 |--②-|
口①①口 |----|
口口口口 |----|
38
口口口口 |①---|
①口④① |----|
①口口① |--②-|
②③口口 |③-④-|
39
口④口口 |①---|
口口口① |----|
口口③② |--②-|
口口口口 |③-④-|
40
①口口口 |①---|
口口口口 |----|
口口口口 |----|
口口口口 |----|
41
口口口口 |①---|
口①①口 |----|
口口口口 |----|
口口口口 |----|
42
口口口口 |①---|
口口口口 |----|
口①①口 |----|
口口口口 |----|
43
②②②② |①---|
口口口口 |--②-|
口口口口 |----|
口①①口 |----|
44
口口口口 |①---|
口口口① |----|
口口口② |②---|
口口口口 |----|
45
口口④口 |①---|
口口①口 |②---|
口口②口 |③---|
口口③口 |--④-|
46
口口口口 |----|
口口口口 |--①-|
口口口口 |----|
口①口口 |----|
47
①口口口 |①---|
口口②口 |----|
口口口口 |②---|
口口口口 |----|
48
口口②口 |①---|
口口口口 |----|
口①口口 |②---|
口口口口 |----|
49
口口口口 |①---|
口口①口 |----|
口口②口 |②---|
口口口口 |----|
50
口口口口 |①---|
口口口口 |②---|
口口口口 |----|
口②①口 |----|
51
①口③口 |①---|
口口口口 |②---|
②口④口 |③---|
口口口口 |④---|
52
①①口口 |①---|
口口口口 |----|
口②口口 |②---|
口口口口 |----|
53
口口②口 |①---|
口口口口 |----|
口口①口 |②---|
口口口口 |----|
54
口口口口 |①---|
口口②口 |----|
口口口口 |②---|
口口口① |----|
55
口口口口 |①-②-|
口口口口 |③-④-|
口①②口 |----|
口③④口 |----|
56
①口口口 |①---|
口口④口 |②---|
②口口口 |③---|
口口③口 |④---|
57
口口口口 |①---|
②口④口 |②---|
口口口口 |③---|
①口③口 |④---|
58
②口④口 |①---|
口口口口 |②---|
①口③口 |③---|
口口口口 |④---|
59
口⑥口口 |①---②-|
③⑤口口 |--③---|
②④口口 |④---⑤-|
①口口口 |--⑥---|
60
口口口口 |①---|
口口口④ |②---|
口口⑤③ |③-④-|
口①②口 |--⑤-|
61
⑥口口口 |①---|
⑤③①口 |②-③-|
④②口口 |--④-|
口口口口 |⑤-⑥-|
62
口口口① |①---|
口口②口 |②---|
口口③口 |③---|
口口口④ |④---|
63
①口口口 |①---|
口②口口 |②---|
口③口口 |③---|
④口口口 |④---|
64
口口口口 |①---|
口④口口 |②---|
口③⑤口 |③-④-|
②口口① |--⑤-|
65
④⑤⑥口 |①---|
口口①③ |②-③-|
口口口② |--④-|
口口口口 |⑤-⑥-|
66
口口口口 |①-②-|
口口口口 |③-④-|
口④③口 |----|
口②①口 |----|
67
口口口口 |①-②-|
④口口③ |③-④-|
②口口① |----|
口口口口 |----|
68
口①②口 |①---|
口口口④ |②---|
口口⑤③ |③-④-|
口口口口 |--⑤-|
69
口口口口 |①---|
口③①口 |②-③-|
口②口口 |----|
口口口口 |----|
70
口口口口 |①---|
口口口口 |----|
口口口口 |----|
口①①口 |----|
71
口口口口 |①---|
口口口口 |----|
口①①口 |----|
口口口口 |----|
72
口口口口 |①---|
口①①口 |----|
口口口口 |----|
口口口口 |----|
73
口①①口 |①---|
②口口② |--②-|
②口口② |----|
口口口口 |----|
74
①口②口 |①---|
③④口口 |②---|
口⑤口口 |③-④-|
口口口口 |--⑤-|
75
口口口口 |①---|
口口口⑥ |②-③-|
口口①⑤ |--④-|
②③口④ |⑤-⑥-|
76
①口②口 |①---|
③④口口 |②---|
口⑤口口 |③-④-|
口口口口 |--⑤-|
77
口口口口 |①---|
口口口口 |----|
口口①口
口口口口

口口口口
口②②口
口③③口 |--②-|
口口口口 |--③-|
78
①口②口 |①---|
③④口口 |②---|
口⑤口口 |③-④-|
口口口口 |--⑤-|
79
口口口口 |①---|
⑥口口口 |②-③-|
⑤口①口 |--④-|
④口②③ |⑤-⑥-|
80
①口②口 |①---|
口③④口 |②---|
口⑤口口 |③-④-|
口口口口 |--⑤-|
81
口口口口 |①---|
口口口口 |--②-|
口口①口 |----|
②口口② |----|
82
口口口口 |----|
口口口口 |----|
口口口口 |----|
口口口口 |----|
83
口口口口 |①-②-|
口①②口 |③-④-|
口③④口 |----|
口口口口 |----|


不确定度: 0

最終更新:2012年11月11日 17:40