Jumping Boogie
Kozo Nakamura

BASIC

Level: 5
BPM: 198
Notes: 328

1
口口口口 |----|
口口口口 |----|
口口口口 |----|
口口口口 |----|
2
口①口口 |①---|
口口②口 |--②-|
口③口口 |----|
口口口口 |③---|
3
口口口口 |--①-|
③口口③ |----|
②口口② |②---|
口口①口 |③---|
4
口①①口 |①---|
②口口② |----|
口口口口 |----|
口口口口 |--②-|
5
口口口口 |----|
口口口口 |----|
口①①口 |----|
口口口口 |--①-|
6
口口口口 |----|
口口口口 |----|
口口口口 |----|
①口口① |--①-|
7
口口口口 |----|
口口口口 |----|
口口口口 |----|
口①①口 |--①-|
8
口口口口 |----|
口口口口 |----|
①口口① |----|
口口口口 |--①-|
9
口口口口 |----|
口①①口 |----|
口口口口 |----|
口口口口 |--①-|
10
①口口① |----|
口口口口 |----|
口口口口 |----|
口口口口 |--①-|
11
口口口口 |----|
口口口口 |----|
口口口口 |----|
口口口口 |----|
12
①口口口 |----|
口口口② |①---|
③口口口 |②---③-|
口口口④ |----④-|
13
口口口④ |----|
③口口口 |①---②-|
口口口② |----③-|
①口口口 |----④-|
14
口口口口 |----①-|
口口①口 |----②-|
口②口口 |----③-|
③口口④ |----④-|
15
口③③口 |----①-|
口②口口 |----|
口口①口 |②---|
口口口口 |----③-|
16
口口口口 |----|
口①①口 |----|
口口口口 |①---|
口口口口 |----|
17
口口口口 |①---|
口口口口 |----|
口①①口 |②---|
口②②口 |----|
18
①口口① |--①-|
②口口② |----②-|
口口口口 |----|
口口口口 |----|
19
口口口口 |①---|
口口口口 |--②-|
口①①口 |----|
口②②口 |----|
20
①口口口 |----|
口口口② |①---|
③口口口 |②---|
口口口口 |③---|
21
口口口口 |①---|
④口口口 |②---|
口口口③ |③---|
②口口① |④---|
22
口口口① |①---|
口口②口 |②---|
口③口口 |③---|
④口口口 |④---|
23
④口口口 |①---|
口③口口 |②---|
口口②口 |③---|
口口口① |④---|
24
口口口口 |①---|
口口口① |②---|
②口口口 |③---|
④口口③ |④---|
25
口口口③ |①---|
②口④口 |②---|
口口口① |③---|
口口口口 |④---|
26
口口口口 |①---|
④口口口 |②---|
③①口口 |③---|
②口口口 |④---|
27
口①①口 |①---|
口②②口 |----②-|
口口口口 |----|
口口口口 |----|
28
①口口口 |①---|
口口口② |②---|
③口口口 |③---|
口口口④ |④---|
29
口口口④ |①---|
③口口口 |②---|
口口口② |③---|
①口口口 |④---|
30
口口口口 |①---|
口口①口 |②---|
口②口口 |③---|
③口口④ |④---|
31
③口口口 |①---|
口②口口 |②---|
口口①口 |③---|
口口口口 |----|
32
口①口① |①---|
②口②口 |----|
口口口口 |②---|
口口口口 |----|
33
口口口口 |①---|
口口口口 |----|
口①口① |②---|
②口②口 |----|
34
口①①口 |①---|
②口口② |----②-|
③口口③ |----|
口口口口 |③---|
35
口口口口 |----①-|
口③③口 |----|
口②②口 |②---|
口①①口 |③---|
36
①口口① |①---|
②口口② |----|
③口口③ |②---|
口口口口 |③---|
37
口④④口 |①---②-|
口③③口 |--③---|
口②②口 |④---|
口①①口 |----|
38
①口口② |①---|
口口口口 |----|
口口口口 |②---|
口口口口 |----|
39
口口口口 |①---|
口口口口 |--②-|
口①①口 |----|
口②②口 |----|
40
口口口口 |①---|
口口口口 |----|
口口口口 |②---|
②口口① |----|
41
口②②口 |①---|
口①①口 |--②-|
口口口口 |----|
口口口口 |----|
42
①口口② |①---|
口口口口 |----|
口口口口 |②---|
口口口口 |----|
43
口口口口 |①---|
口口口口 |--②-|
口①①口 |----|
口②②口 |----|
44
口口口口 |①---|
口口口口 |----|
口口口口 |②---|
②口口① |----|
45
口②②口 |①---|
口①①口 |--②-|
口口口口 |----|
口口口口 |----|
46
①口口口 |①---|
口口口② |----②-|
③口口口 |----|
口口口口 |③---|
47
口口口口 |①---|
④口口口 |②---|
口口口③ |③---|
②口口① |④---|
48
口口口① |①---|
口口②口 |②---|
口③口口 |③---④-|
④⑤口口 |----⑤-|
49
口口口口 |----①-|
口②②口 |----②-|
口口口口 |----|
口口①口 |----|
50
①②③④ |①---|
口口口口 |②---|
口口口口 |③---|
口口口口 |④---|
51
口口口口 |①---|
④③②① |②---|
口口口口 |③---|
口口口口 |④---|
52
口口口口 |①---|
口口口口 |②---|
①②③④ |③---|
口口口口 |④---|
53
口口口口 |①---|
口口口口 |②---|
口口口口 |③---|
④③②① |④---|
54
口口口口 |①---|
③①②口 |----②-|
口②①③ |----|
口口口口 |----③-|
55
口②口口 |----|
口口口① |----①-|
①口口口 |----|
口口②口 |----②-|
56
②口①口 |----|
口口口口 |----①-|
口口口口 |----|
口①口② |----②-|
57
口口②① |----|
口口口口 |----①-|
口口口口 |----|
①口口口 |----②-|
58
口口口口 |----①-|
口①口口 |----②-|
口口②口 |----③-|
口③④口 |----④-|
59
口③口口 |----①-|
口口②口 |----②-|
口①口口 |----③-|
口口口口 |----|
60
①口口① |①---|
②口口② |--②-|
③口口③ |----|
口口口口 |③---|
61
口口口口 |--①-|
口②②口 |----|
口②②口 |②---|
①口口① |----|
62
①②③④ |①---|
口口口口 |②---|
口口口口 |③---|
口口口口 |④---|
63
口口口口 |①---|
④③②① |②---|
口口口口 |③---|
口口口口 |④---|
64
口口口口 |①---|
口口口口 |②---|
①②③④ |③---|
口口口口 |④---|
65
口口口口 |①---|
口口口口 |②---|
口口口口 |③---|
④③②① |④---|
66
口口口口 |①---|
③①②口 |----②-|
口②①③ |----|
口口口口 |----③-|
67
口②口口 |----|
口口口① |----①-|
①口口口 |----|
口口②口 |----②-|
68
②口①口 |----|
口口口口 |----①-|
口口口口 |----|
口①口② |----②-|
69
口口②① |----|
口口口口 |----|
口口口口 |①---|
①口口口 |----②-|
70
口口口口 |----①-|
口①口口 |----②-|
口口②口 |----③-|
口③④口 |----④-|
71
口③口口 |----①-|
口口②口 |----②-|
口①口口 |----③-|
口口口口 |----|
72
①口口① |①---|
口②③口 |②---|
口口口口 |③---|
口口口口 |----|
73
口口口口 |①---|
口口口口 |----②-|
②①①② |----|
口口口口 |----|
74
口口口口 |①---|
口①①口 |----|
口③③口 |----|
口②口口 |②-③-|
75
口口①口 |----|
口②②口 |----|
口口口口 |----|
口口口口 |①-②-|
76
口②①口 |----|
口口口口 |----|
口口口口 |----|
口口口口 |①-②-|
77
口口口口 |----|
口①①口 |----①-|
口口口口 |----|
口口口口 |----|
78
口口口口 |----|
口口①口 |----|
口②②口 |----|
口口口口 |①---②-|
79
口②②口 |----|
口①口口 |----|
口口口口 |----|
口口口口 |①---②-|
80
口口口口 |----|
口口口口 |----|
口②②口 |----|
口①口口 |①---②-|
81
口②②口 |----|
口①①口 |----|
口口口口 |①---|
口口口口 |----②-|
82
口口口口 |----|
口①口口 |----|
口②②口 |----|
口口口口 |①---②-|
83
口②②口 |----|
口口①口 |----|
口口口口 |----|
口口口口 |①---②-|
84
口口②口 |----|
口①口口 |----|
口口口口 |----|
口口口口 |①---②-|
85
口口口口 |----|
①口口① |----①-|
②口口② |----|
口口口口 |----②-|
86
口口口口 |----|
口口口口 |----①-|
②口口② |----|
口①①口 |----②-|
87
②口口② |----|
口①①口 |----①-|
口口口口 |----|
口口口口 |----②-|
88
口口口口 |----|
①口口口 |①---|
口口口② |②---|
③口口口 |③---|
89
口口口口 |①---|
口口口③ |②---|
②口口口 |③---|
口口口① |----|
90
口口口口 |①---|
口①①口 |----|
口①①口 |----|
口口口口 |----|


不确定度: 0

最終更新:2012年11月11日 17:39