Jumping Boogie
Kozo Nakamura

ADVANCED

Level: 7
BPM: 198
Notes: 477

1
口口口口 |----|
口口口口 |----|
口口口口 |----|
口口口口 |----|
2
口①口口 |①-②---|
口③②口 |--③-|
口⑤④口 |④---|
口口⑥口 |⑤-⑥-|
3
③②②③ |--①-|
④口口④ |②---|
口口口口 |③---|
口①口口 |④---|
4
口口口口 |①---|
口口口口 |②---|
①口口② |③---|
③⑤口④ |④-⑤-|
5
口口口口 |----|
口④③口 |①---|
口②①口 |②---|
口口口口 |③-④-|
6
③②①口 |----|
口口④口 |①---|
口口口口 |②---|
口口口口 |③-④-|
7
口口口口 |----①-|
①口口口 |②---③-|
③口②⑦ |④---⑤-|
⑤⑥④口 |⑥-⑦-|
8
口口口④ |----|
口③口② |①---|
口①口口 |②---|
口口口口 |③-④-|
9
③①②口 |----|
口口口④ |①---|
口口口口 |②---|
口口口口 |③-④-|
10
口口口口 |----|
口口口口 |①---|
①口口④ |②---|
③口口② |③-④-|
11
口③口② |--①-|
①口④口 |②-③-|
口⑤口口 |④---⑤-|
口口⑥⑦ |⑥---⑦-|
12
口口口口 |----|
口①口口 |①---|
口⑤②口 |②---③-|
口③④口 |④---⑤-|
13
口②③口 |①---|
口④①口 |②---③-|
口口⑤口 |----④-|
口口口口 |----⑤-|
14
口口口口 |----①-|
④口口口 |----②-|
②口口③ |----③-|
口①口口 |----④-|
15
②口口③ |----①-|
口口口① |----|
口口口口 |②---③-|
口口口④ |----④-|
16
③口口口 |--①-|
口口口② |--②-|
①口口口 |③---|
口口口口 |----|
17
口①①口 |①---|
口②②口 |②-③-|
口③③口 |----|
④口口④ |----④-|
18
口口口口 |--①-|
口②②口 |----|
①口口① |②---|
口口口口 |----|
19
口②②口 |①---|
①口口① |--②-|
口口口口 |----|
口口口口 |----|
20
口口口口 |----|
口①口口 |①---|
口口②口 |②---③-|
口③④口 |④---|
21
口③口口 |①---|
口口②口 |②---③-|
口①口口 |----|
口口口口 |----|
22
口口口④ |①---|
③口口口 |②---|
口口口② |③---④-|
①⑤口口 |----⑤-|
23
口口③口 |----①-|
口②口口 |----|
口口①口 |②---③-|
口口口口 |----|
24
口口口口 |①---|
①口口① |②---|
口②②口 |③---|
口③③口 |----|
25
口①①口 |①---|
口②②口 |②---|
口③③口 |③---④-|
④口口④ |----|
26
②④⑤③ |①---|
⑥口口⑦ |②---③-|
①口口① |④---⑤-|
口口口口 |⑥---⑦-|
27
口口口口 |①---|
口①②口 |②---③-|
口③③口 |----|
口口口口 |----|
28
④②①③ |①---②-|
⑥口口⑤ |③---④-|
口⑧⑦口 |⑤---⑥-|
口口口口 |⑦---⑧-|
29
口口口口 |①---②-|
⑧口口⑦ |③---④-|
⑥口口⑤ |⑤---⑥-|
④②①③ |⑦---⑧-|
30
口口口口 |----①-|
口①①口 |----②-|
口②②口 |----|
④③③④ |③---④-|
31
口口口口 |----|
口口口口 |----①-|
口①①口 |----|
口②②口 |----②-|
32
③口口③ |----①-|
口②②口 |----②-|
①口口① |----|
口口口口 |③---|
33
口①①口 |①---②-|
②口口② |----③-|
口③③口 |----④-|
④⑤⑤④ |--⑤---|
34
口③③口 |①---②-|
④②②④ |----③-|
①⑤⑤① |----|
口口口口 |④---⑤-|
35
口口口口 |----①-|
口口口口 |----|
口口口口 |②---|
③①①② |③---|
36
⑥口口⑤ |①---②-|
④口口③ |③---④-|
②口口① |⑤---⑥-|
口口口口 |----|
37
口①①口 |①---②-|
口②②口 |--③---|
口③③口 |④---|
口④④口 |----|
38
①口②口 |①---②-|
口③⑤④ |③----④|
口口口口 |----|
口口口口 |⑤---|
39
口口口口 |①---|
口口口口 |----②-|
①①②② |----|
口①②口 |----|
40
口②口① |①---②-|
④⑤③口 |③---|
口口口口 |④---|
口口口口 |⑤---|
41
口口口口 |①---|
口口口口 |----②-|
②②①① |----|
口②①口 |----|
42
①⑤②口 |①---②-|
口③口④ |③---|
口口口口 |④---⑤-|
口口口口 |----|
43
口口口口 |①---|
口口口口 |----②-|
①①②② |----|
口①②口 |----|
44
口②⑤① |①---②-|
④口③口 |③---|
口口口口 |④---|
口口口口 |⑤---|
45
口口口口 |①---|
口口口口 |----②-|
②②①① |----|
口②①口 |----|
46
口①口口 |①---|
口③②口 |----②-|
口口口口 |----|
口口口口 |③---|
47
口口口口 |①---|
口口口口 |②---|
口②①口 |③---|
口④③口 |④---|
48
②①①③ |----|
口④⑤口 |①---|
口口口口 |②---③-|
口口口口 |④---⑤-|
49
口口口口 |①---②-|
口口口口 |----③-|
口①②口 |----|
口③③口 |----|
50
口①①口 |①---|
口②③口 |----|
口④口口 |②---③-|
口口口口 |----④-|
51
口口口口 |----①-|
口口口口 |----②-|
口口①口 |----③-|
口②③口 |----|
52
口⑤⑤口 |①---②-|
①②③④ |----③-|
口口口口 |----|
口口口口 |④---⑤-|
53
①口口① |----①-|
口②②口 |----②-|
口③③口 |----③-|
口口口口 |----|
54
口①口口 |①---|
口口口② |--②---|
口③口口 |----③-|
口口口④ |----④-|
55
口口口口 |----①-|
口③口④ |----②-|
口口口② |----|
口①口口 |③---④-|
56
口口口口 |----①-|
口口口口 |----②-|
口①④② |----③-|
口③口口 |----④-|
57
口口口口 |----①-|
口①口口 |----②-|
口口口② |----|
口口③口 |----③-|
58
口③④口 |①---②-|
口⑤②口 |③---④-|
口①⑥口 |⑤---⑥-|
口⑦⑧口 |⑦---⑧-|
59
口③口口 |----①-|
口口②④ |②---③-|
⑤①口口 |----④-|
口口口口 |----⑤-|
60
口口口口 |①---|
口③③口 |----②-|
口②②口 |----|
口①①口 |③---|
61
口口口口 |----①-|
口③③口 |----|
口②②口 |②---|
①口口① |③---|
62
②①①③ |①---|
口口口口 |②---|
口口口口 |③---|
口口口口 |----|
63
口口口口 |①---|
①②③④ |②---|
口口口口 |③---④-|
口口口口 |----|
64
口口口口 |①---|
口口口口 |②---|
口①①口 |③---|
②口口③ |----|
65
口口口口 |①---|
口口口口 |②---|
④③②① |③---④-|
口口口口 |----|
66
①口口① |①---②-|
②③③② |----③-|
④口口④ |----④-|
口⑤⑤口 |----⑤-|
67
口③③口 |----①-|
口②②口 |----②-|
口①①口 |----③-|
口口口口 |----|
68
②口口① |①---②-|
口④③口 |----|
口口口口 |③---④-|
口口口口 |----|
69
口口口口 |①---②-|
口口口口 |----|
②口口① |③---④-|
口④③口 |----|
70
口①①口 |①---|
口②②口 |----②-|
③④④③ |----|
口口口口 |③---④-|
71
口②②口 |----|
①口口① |①---|
口口口口 |②---|
口口口口 |----|
72
口口④④ |①---|
口口③③ |②---|
口口②② |③---④-|
口口①① |----|
73
①①口口 |①---|
口口口口 |----②-|
②口口③ |----③-|
口口口口 |----|
74
④口口口 |----|
口口口③ |①---|
口口口口 |②---|
②口口① |③-④-|
75
口口口④ |----|
③口口口 |①---|
口口口口 |②---|
②口口① |③-④-|
76
④口口口 |----|
口口口③ |①---|
口口口口 |②---|
②口口① |③-④-|
77
口①①口 |----|
口②②口 |----①-|
口③③口 |----|
口口口口 |②---③-|
78
④口口口 |----①-|
口口口③ |②---|
口口口口 |----|
②口口① |③---④-|
79
口口口④ |----①-|
③口口口 |②---|
口口口口 |----|
②口口① |③---④-|
80
④口口口 |----①-|
口口口③ |②---|
口口口口 |----|
②口口① |③---④-|
81
口①口口 |----|
口口②口 |----①-|
口③口口 |----②-|
口口口口 |③---|
82
口口口口 |----|
口④④口 |①---|
②③③口 |②---|
口口口① |③---④-|
83
②③③口 |----|
口④④① |①---|
口口口口 |②---|
口口口口 |③---④-|
84
口口口口 |----①-|
口④④口 |----|
①③③② |②---|
口口口口 |③---④-|
85
②口口② |----|
①口口① |①---②-|
口④④口 |----|
口③③口 |③---④-|
86
口④④口 |----|
②③③② |①---②-|
①口口① |----|
口口口口 |③---④-|
87
口④④口 |----|
口③③口 |①---②-|
口②②口 |----|
口①①口 |③---④-|
88
口口⑥口 |----|
口口口⑤ |①---②-|
①口口④ |③---④-|
口②③口 |⑤---⑥-|
89
口①口口 |----①-|
②口口口 |②---③-|
③口口口 |④---⑤-|
口④⑤口 |----|
90
口口口口 |①---|
口①①口 |----|
口①①口 |----|
口口口口 |----|


不确定度: 0

最終更新:2012年11月11日 17:39