Jumping Boogie
Kozo Nakamura

EXTREME

Level: 8
BPM: 198
Notes: 632

1
口口口口 |----|
口口口口 |----|
口口口口 |----|
口口口口 |----|
2
⑥口口⑥ |①-②-|
⑤口口⑤ |--③-|
②④④② |④---|
①③③① |⑤-⑥-|
3
口②②口 |--①-|
口①①口 |②---|
④口口④ |③---|
③口口③ |④---|
4
口口⑤口 |①---|
口③④口 |②---|
口②口口 |③---|
口①口口 |④-⑤-|
5
口口④口 |----|
口②③口 |①---|
口①口口 |②---|
口口口口 |③-④-|
6
口口口口 |----|
口②③④ |①---|
口①口口 |②---|
口口口口 |③-④-|
7
⑦口口口 |----①-|
⑥⑤口口 |②---③-|
口④③口 |④---⑤-|
口口②① |⑥---⑦-|
8
口③②① |----|
口④口口 |①---|
口口口口 |②---|
口口口口 |③-④-|
9
口口口口 |----|
口口口口 |①---|
口口④口 |②---|
①②③口 |③-④-|
10
口口口口 |----|
口口③④ |①---|
①②口口 |②---|
口口口口 |③-④-|
11
①②口口 |----①-|
③④口口 |②---③-|
⑤⑥口口 |④---⑤-|
⑦口口口 |⑥---⑦-|
12
口口②口 |①---|
口口③口 |②---|
口口④⑤ |③---④-|
口①⑥口 |⑤---⑥-|
13
③③口口 |①---|
②②④④ |②---③-|
口口口口 |----④-|
⑤口口① |----⑤-|
14
⑤口口⑦ |①---②-|
④口口⑥ |③---④-|
①口口③ |⑤---⑥-|
口⑧口② |⑦---⑧-|
15
口⑤⑥口 |①---②-|
口④④口 |③---|
口①③口 |④---⑤-|
⑦口②⑦ |⑥---⑦-|
16
口口口口 |--①-|
②③③② |--②-|
①口口① |③---|
口口口口 |----|
17
①①①① |①---|
口④④口 |②-③-|
口②②口 |----|
口③③口 |----④-|
18
口口口口 |--①-|
口口口口 |--②-|
①口口① |③---|
口③②口 |----|
19
口②③口 |①---|
①口口① |②-③-|
口口口口 |----|
口口口口 |----|
20
口口⑤口 |①---|
口③④口 |②---|
口②口口 |③---④-|
口①①口 |⑤---|
21
①口口① |①---|
口口口口 |②---③-|
口②③口 |----|
口口口口 |----|
22
⑥口口口 |①---|
口口④⑤ |②---|
③③口口 |③---④-|
①①②② |⑤---⑥-|
23
口①口口 |①---②-|
②③口口 |③---④-|
口口④⑤ |⑤---⑥-|
口口⑥⑦ |⑦---|
24
口口①① |①---|
口口口口 |②---|
②口口③ |③---|
口口口口 |----|
25
口口口口 |①---|
口口④⑤ |②---|
口②③口 |③---④-|
口①口口 |⑤---|
26
②口③④ |①---|
⑤⑥口口 |②---③-|
口口⑦口 |④---⑤-|
①①①① |⑥---⑦-|
27
口口口口 |①---|
口口口口 |②---③-|
③③口① |----|
②②口口 |----|
28
③口①① |①---②-|
②口口⑧ |③---④-|
⑦口口⑤ |⑤---⑥-|
⑥口口④ |⑦---⑧-|
29
口③口① |①---②-|
口②口口 |③---④-|
口⑦⑤口 |⑤---⑥-|
⑧⑥④⑧ |⑦---⑧-|
30
⑤口口⑤ |----①-|
②①①③ |----②-|
④口口④ |③---|
口口口口 |④---⑤-|
31
口①②口 |----|
口口口口 |①---②-|
口口口口 |----|
③口口③ |----③-|
32
⑤口口⑤ |----①-|
口③④口 |②---③-|
口①②口 |④---|
口口口口 |⑤---|
33
⑥⑤⑤⑥ |①---②-|
④口口④ |③---④-|
口②③口 |----⑤-|
①口口① |--⑥---|
34
⑥口口⑥ |①---②-|
⑤口口⑤ |----③-|
②口口② |④---|
①③④① |⑤---⑥-|
35
口①②口 |----①-|
口④④口 |②---|
口③③口 |③---|
口口口口 |④---|
36
①口口⑦ |①---②-|
⑧口口⑥ |③---④-|
⑤口口③ |⑤---⑥-|
④口口② |⑦---⑧-|
37
口①①口 |①---②-|
口②②口 |--③---|
口③③口 |④---|
口④④口 |----|
38
口③⑤⑤ |①---②-|
①②④④ |③---|
口口口口 |④---|
口口口口 |⑤---|
39
口口口口 |①---|
口口口口 |----②-|
②②②② |----|
①①①① |----|
40
①②④④ |①---②-|
口③⑤⑤ |③---|
口口口口 |④---|
口口口口 |⑤---|
41
口口口口 |①---|
口口口口 |----②-|
②②②② |----|
①①①① |----|
42
口口②口 |①---②-|
①①③口 |③---|
口⑤④④ |④---⑤-|
口⑥口口 |⑥---|
43
①①②② |①---|
口口口口 |----②-|
口口口口 |----|
口口口口 |----|
44
口口⑤⑤ |①---②-|
口口④④ |③---|
口口③口 |④---|
①①②口 |⑤---|
45
①①口口 |①---|
①①口口 |----②-|
口口②② |----|
口口②② |----|
46
⑤⑤口口 |①---②-|
口口口④ |----③-|
①②口③ |④---|
口口口口 |⑤---|
47
口口口口 |①---|
①①④④ |②---|
②②口口 |③---|
③③口口 |④---|
48
②口③口 |----|
口⑤④口 |①---|
口口口口 |②---③-|
口口①① |④---⑤-|
49
口口口口 |①---②-|
口口口口 |----③-|
口①②② |----|
口口③③ |----|
50
①①①① |①---|
②口④③ |----|
⑤口口口 |②---③-|
口口口口 |④---⑤-|
51
口口口口 |①---②-|
口口口口 |③---④-|
口①③② |⑤---⑥-|
④⑤⑦⑥ |⑦---|
52
⑦口口口 |①---②-|
①③⑤口 |③---④-|
口②④⑥ |⑤---|
口口口口 |⑥---⑦-|
53
口④⑥② |①---②-|
①⑤⑦③ |③---④-|
口口口口 |⑤---⑥-|
口口口口 |⑦---|
54
口口口口 |①---②-|
⑧口口口 |③---④-|
口②④⑥ |⑤---⑥-|
①③⑤⑦ |⑦---⑧-|
55
④⑤⑦⑥ |①---②-|
口①③② |③---④-|
⑧口口口 |⑤---⑥-|
口口口口 |⑦---⑧-|
56
口口口口 |①---②-|
⑧口口口 |③---④-|
口①③② |⑤---⑥-|
④⑤⑦⑥ |⑦---⑧-|
57
①③⑤⑦ |①---②-|
口②④⑥ |③---④-|
口口口口 |⑤---⑥-|
⑧口口口 |⑦---⑧-|
58
⑧口口口 |①---②-|
口口口口 |③---④-|
①③⑤⑦ |⑤---⑥-|
口②④⑥ |⑦---⑧-|
59
口④⑤① |①---②-|
②⑥⑦③ |③---④-|
口口口口 |⑤---⑥-|
口⑧⑧口 |⑦---⑧-|
60
③⑥⑥④ |①---②-|
③⑤⑤④ |----③-|
口①①口 |④---|
②口口② |⑤---⑥-|
61
口口口口 |----①-|
口④④口 |②---|
①③③② |③---|
①口口② |④---|
62
②①①③ |①---|
口口口口 |②---|
口口口口 |③---|
口口口口 |----|
63
口口口口 |①---|
①②③⑤ |②---|
口口口④ |③---④-|
口口口口 |⑤---|
64
口口口口 |①---|
口口口口 |②---|
口①①口 |③---|
②口口③ |----|
65
口口口口 |①---|
④口口口 |②---|
⑤③②① |③---④-|
口口口口 |⑤---|
66
⑥④②口 |①---②-|
⑦⑤③① |③---④-|
⑧口口口 |⑤---⑥-|
口口口口 |⑦---⑧-|
67
口口口口 |①---②-|
口口口口 |③---④-|
口②④⑥ |⑤---⑥-|
①③⑤⑦ |⑦---|
68
③口⑤④ |①---②-|
②②①① |----|
口口口口 |③---④-|
口口口口 |⑤---|
69
口口口口 |①---②-|
口口口口 |----|
②②①① |③---④-|
③口④⑤ |⑤---|
70
口口②④ |①---②-|
口①口③ |----③-|
⑤口口口 |④---|
口口⑥口 |⑤---⑥-|
71
口口口⑤ |①---|
③③口④ |②---|
口口①口 |③---④-|
②②口口 |⑤---|
72
⑤口口口 |①---|
④口口口 |②---|
口口②② |③---④-|
③③①① |⑤---|
73
口口①① |①---|
口④③③ |----②-|
②②口口 |----③-|
口口口口 |----④-|
74
①①⑤⑤ |①---|
口口口④ |②---|
口口口口 |③---|
③③②② |④-⑤-|
75
④④口口 |----|
③口口口 |①---|
口口口口 |②---|
②②①① |③-④-|
76
口口④④ |----|
口口口③ |①---|
口口口口 |②---|
②②①① |③-④-|
77
②②口口 |----|
①④④口 |①---②-|
口③③口 |----|
口口口口 |③---④-|
78
口口口口 |----①-|
口⑥⑥口 |②---|
②⑤⑤③ |③---④-|
①④口口 |⑤---⑥-|
79
口口口口 |----①-|
口⑥⑥口 |②---|
②⑤⑤③ |③---④-|
①④口口 |⑤---⑥-|
80
口口口口 |----①-|
口⑥⑥口 |②---|
②⑤⑤③ |③---④-|
①④口口 |⑤---⑥-|
81
②口口② |----|
①口口① |①---②-|
⑤口口⑤ |----③-|
④③口④ |④---⑤-|
82
③①①③ |--①-|
②⑤⑤② |②---|
口④④口 |③---|
口口口口 |④---⑤-|
83
口口口口 |----①-|
口⑤⑤口 |②---|
②④④③ |③---|
①口口口 |④---⑤-|
84
口口口口 |----①-|
口⑤⑤口 |②---|
②④④③ |③---|
①口口口 |④---⑤-|
85
②口口② |----|
①口口① |①---②-|
口④④口 |----|
口③③口 |③---④-|
86
口④④口 |----|
②③③② |①---②-|
①口口① |----|
口口口口 |③---④-|
87
④④④④ |----|
③③③③ |①---②-|
口②②口 |----|
口①①口 |③---④-|
88
口口口口 |----|
口口口口 |①---②-|
①③⑤口 |③---④-|
口②④⑥ |⑤---⑥-|
89
③③⑤⑤ |①---②-|
②口口④ |③---④-|
口口口① |⑤---⑥-|
口⑥⑥口 |----|
90
口口口口 |①---|
口①①口 |----|
口①①口 |----|
口口口口 |----|


不确定度: 0

最終更新:2012年11月11日 17:38