IN THE NAME OF LOVE
Y& Co. feat. Erica

BASIC

Level: 6
BPM: 155
Notes: 469

1
口口口口 |----|
口口口口 |----|
口口口口 |----|
口口口口 |----|
2
口①①口 |①---|
口②③口 |②-③-|
口④⑤口 |④-⑤-|
口⑥⑥口 |--⑥-|
3
③口口③ |----|
②口口② |①---|
口口口口 |②-③-|
①口口① |----|
4
口口口口 |①---|
口口口口 |②---|
②口口②
口①①口

④口口④
③口口③
口口口口 |③---|
口⑤⑤口 |④-⑤-|
5
口③③口 |--①-|
④②②④ |--②-|
口①①口 |--③-|
口口口口 |④---|
6
①口口② |----|
③口口④ |①-②-|
口口口口 |③-④-|
口⑤⑤口 |--⑤-|
7
③口口③ |----|
②口口② |①---|
口口口口 |②-③-|
①口口① |----|
8
口口口口 |①---|
口口口口 |----|
口口口口 |②---|
②②①① |----|
9
口①①口 |①---|
口①①口 |----|
口口口口 |----|
口②②口 |②---|
10
④③③④ |①---|
②口口② |②---|
①口口① |③---|
口口口口 |④---|
11
口④④口 |①---|
③口口③ |②---|
口②②口 |③---|
①口口① |④---|
12
口口口口 |①---|
口④④口 |②---|
③②②③ |③---|
①口口① |④---|
13
①口口① |①---|
口④④口 |②---|
口③③口 |③---|
口②②口 |④---|
14
①口口① |①---|
口口口口 |②---|
②④④② |③---|
口③③口 |④---|
15
②①①② |①---|
③口口③ |②---|
④口口④ |③---|
口口口口 |④---|
16
口口口口 |①---|
口口口口 |②---|
④③③④ |③---|
②①①② |④---|
17
②口口② |①---|
口①①口 |②---|
③口口③ |③---|
④口口④ |④---|
18
口口口口 |----|
①⑤⑤② |①-②-|
③口口④ |③-④-|
口口口口 |--⑤-|
19
口①①口 |----|
口口口口 |①---|
②口口③ |②-③-|
②口口③ |----|
20
口口口口 |----|
①⑤⑤② |①-②-|
③口口④ |③-④-|
口口口口 |--⑤-|
21
口①①口 |----|
口口口口 |①---|
③口口② |②-③-|
③口口② |----|
22
①②口③ |①-②-|
口口口口 |--③-|
口口口口
口口口口

口⑤④口
口口口口
口口口口 |--④-|
口口口口 |--⑤-|
23
口口口口 |--①-|
口口口口 |--②-|
④④②② |--③-|
③③①① |--④-|
24
②②口口 |--①-|
①①口口 |--②-|
口口口口
口口口口

口口口口
口③口口
口口口口 |----|
口口口口 |--③-|
25
⑤③④⑤ |--①-|
口口①口 |②---|
口②②口 |③-④-|
口口口口 |--⑤-|
26
口口口口 |----|
口口口口 |①---|
口口口口 |②---|
②②①① |----|
27
⑤口口⑤ |①---|
①④④② |②---|
口③③口 |③-④-|
口口口口 |--⑤-|
28
口口口口 |----|
①口②口 |①---|
①口②口 |②---|
口口口口 |----|
29
口口④③ |①---|
口口④③ |②-③-|
②②口口 |--④-|
①①口口 |----|
30
①②③口 |----|
口口口口 |①---|
口口口口 |②---|
口口口口 |③---|
31
口口口口 |①---|
口口口口 |②---|
口口口口 |③---|
口③②① |----|
32
口⑤⑤口 |①---|
口①①口 |②---|
④②②④ |③-④-|
③口口③ |--⑤-|
33
口口口口 |----|
口口口口 |----|
口口口口 |----|
口①①口 |①---|
34
③④④③ |①-②-|
口①①口 |--③-|
口②②口 |--④-|
口⑤⑤口 |--⑤-|
35
③口口③ |--①-|
②口口② |②---|
①口口① |③---|
口口口口 |----|
36
③④④③ |①-②-|
口①②口 |--③-|
口口口口 |--④-|
口⑤⑤口 |--⑤-|
37
③口口③ |--①-|
②口口② |②---|
①口口① |③---|
口口口口 |----|
38
④口口④ |①-②-|
⑤③③⑤ |--③-|
②口口② |--④-|
①口口① |⑤---|
39
口口口口 |①-②-|
口口口口 |--③-|
①②口③ |----|
口口口口 |----|
40
口口②① |①-②-|
⑥⑥口口 |--③-|
③③⑤⑤ |--④-|
口口④④ |⑤-⑥-|
41
①①口口 |①-②-|
口口②② |--③-|
③③口口 |----|
口④④口 |④---|
42
③④④③ |①-②-|
口①①口 |--③-|
口②②口 |--④-|
口⑤⑤口 |--⑤-|
43
③口口③ |--①-|
②口口② |②---|
①口口① |③---|
口口口口 |----|
44
③④④③ |①-②-|
口①②口 |--③-|
口口口口 |--④-|
口⑤⑤口 |--⑤-|
45
③口口③ |--①-|
②口口② |②---|
①口口① |③---|
口口口口 |----|
46
④口口④ |①-②-|
⑤③③⑤ |--③-|
②口口② |--④-|
①口口① |⑤---|
47
口口口口 |①-②-|
口口口口 |--③-|
①②口③ |----|
口口口口 |----|
48
口①口口 |----|
口②①口 |①-②-|
口③②口 |③---|
口口③口 |----|
49
口口口① |①-②-|
口③③② |--③-|
②③③口 |----|
①④④口 |④---|
50
④③③④ |①---|
②口口② |②---|
①口口① |③---|
口口口口 |④---|
51
口④④口 |①---|
③口口③ |②---|
口②②口 |③---|
①口口① |④---|
52
口口口口 |①---|
口④④口 |②---|
③②②③ |③---|
①口口① |④---|
53
①口口① |①---|
口④④口 |②---|
口③③口 |③---|
口②②口 |④---|
54
①口口① |①---|
口口口口 |②---|
②④④② |③---|
口③③口 |④---|
55
②①①② |①---|
③口口③ |②---|
④口口④ |③---|
口口口口 |④---|
56
口口口口 |①---|
口口口口 |②---|
④③③④ |③---|
②①①② |④---|
57
②口口② |①---|
口①①口 |②---|
③口口③ |③---|
④口口④ |④---|
58
口口口口 |①---|
②①①② |②---|
③口口③ |③---|
口④④口 |④---|
59
③口口③ |①---|
口①①口 |②---|
②口口② |③---|
口④④口 |④---|
60
②口口② |①---|
③①①③ |②---|
④口口④ |③---|
口口口口 |④---|
61
①①③③ |①---|
口口口口 |②---|
口口口口 |③---|
④④②② |④---|
62
③③口口 |①---|
口口②② |②---|
④④口口 |③---|
口口①① |④---|
63
口口④④ |①---|
①①③③ |②---|
口口②② |③---|
口口口口 |④---|
64
口④④口 |①---|
③口口③ |②---|
口②②口 |③---|
①口口① |④---|
65
③口口④ |①---|
口②②口 |②---|
口口口口 |③---|
口①①口 |④---|
66
口⑥⑤④ |①-②-|
口口口口 |--③-|
口口口口 |④-⑤-|
①②③口 |--⑥-|
67
④口口④ |①-②-|
①②③口 |--③-|
口③②① |--④-|
口口口口 |----|


不确定度: 0

最終更新:2012年11月11日 17:38