IN THE NAME OF LOVE
Y& Co. feat. Erica

ADVANCED

Level: 7
BPM: 155
Notes: 607

1
口口口口 |----|
口口口口 |----|
口口口口 |----|
口口口口 |----|
2
②①①③ |①---|
④②③⑤ |②-③-|
口④⑤口 |④-⑤-|
口⑥⑥口 |--⑥-|
3
③口口③ |----|
②③③② |①---|
①②②① |②-③-|
①口口① |----|
4
口口口口 |①---|
口口口口 |②---|
②口口②
口①①口

④口口④
③口口③
口口口口 |③---|
口⑤⑤口 |④-⑤-|
5
口③③口 |--①-|
④②②④ |--②-|
口①①口 |--③-|
口口口口 |④---|
6
①口口② |----|
③①②④ |①-②-|
口③④口 |③-④-|
口⑤⑤口 |--⑤-|
7
③口口③ |----|
②③③② |①---|
①②②① |②-③-|
①口口① |----|
8
口口口口 |①-②-|
口口口口 |③-④-|
⑥⑦③② |⑤-⑥-|
⑤⑧④① |⑦-⑧-|
9
口①①口 |①---|
口①①口 |----|
口口口口 |--②-|
口④③② |③-④-|
10
⑤④④⑤ |①-②-|
③口口③ |③---|
①②②① |④---|
口⑥⑥口 |⑤-⑥-|
11
口④④口 |①---|
③口口③ |②---|
口②②口 |③---|
①口口① |④---|
12
口口口口 |①-②-|
⑥⑤⑤⑥ |③---|
④③③④ |④---|
①②②① |⑤-⑥-|
13
①口口① |①---|
口④④口 |②---|
口③③口 |③---|
口②②口 |④---|
14
①口口① |①-②-|
②⑥⑥② |③---|
③⑤⑤③ |④---|
口④④口 |⑤-⑥-|
15
②①①② |①---|
③口口③ |②---|
④口口④ |③---|
口口口口 |④---|
16
口口口口 |①---|
口口口口 |②---|
④③③④ |③---|
②①①② |④---|
17
③②②③ |①-②-|
口①①口 |③---|
④口口④ |④---|
⑤口口⑤ |⑤---|
18
④口口④ |----|
③⑤⑤③ |①-②-|
口②②口 |③-④-|
口①①口 |--⑤-|
19
口①①口 |----|
口口口口 |①---|
②口口③ |②-③-|
②口口③ |----|
20
④口口④ |----|
③⑤⑤③ |①-②-|
口②②口 |③-④-|
口①①口 |--⑤-|
21
口①①口 |----|
口口口口 |①---|
③口口② |②-③-|
③口口② |----|
22
①②口③ |①-②-|
①②口③ |--③-|
口口口口
口口口口

口⑤④口
口⑤④口
口口口口 |--④-|
口口口口 |--⑤-|
23
口口口口 |--①-|
口口口口 |--②-|
④④②② |--③-|
③③①① |--④-|
24
②②口口 |--①-|
①①口口 |--②-|
口口口口
口口口口

口口口口
口③口口
口口口口 |----|
③口口口 |--③-|
25
⑤③④⑤ |--①-|
口口①口 |②---|
③②②④ |③-④-|
口口口① |--⑤-|
26
口口口口 |----|
口口口口 |①---|
口口口口 |②---|
②②①① |----|
27
⑤口口⑤ |①---|
①④④② |②---|
①③③② |③-④-|
口口口口 |--⑤-|
28
口口口口 |----|
①口②口 |①---|
①口②口 |②---|
①①②② |----|
29
口口④③ |①---|
口口④③ |②-③-|
②②口口 |--④-|
①①口口 |----|
30
①②③口 |----|
①②③口 |①---|
口口口口 |②---|
口口口口 |③---|
31
口口口口 |①---|
口口口口 |②---|
口③②① |③---|
口③②① |----|
32
①⑤⑤① |①---|
②①①② |②---|
④②②④ |③-④-|
③口口③ |--⑤-|
33
口口口口 |----|
口口口口 |----|
口口口口 |----|
口①①口 |①---|
34
③④④③ |①-②-|
口①①口 |--③-|
口②②口 |--④-|
口⑤⑤口 |--⑤-|
35
③口口③ |--①-|
②②②② |②---|
①①①① |③---|
口口口口 |----|
36
③④④③ |①-②-|
口①②口 |--③-|
口①②口 |--④-|
口⑤⑤口 |--⑤-|
37
③口口③ |--①-|
②②②② |②---|
①①①① |③---|
口口口口 |----|
38
④口口④ |①-②-|
⑤③③⑤ |--③-|
②口口② |--④-|
①口口① |⑤---|
39
口口口口 |①-②-|
口口口口 |--③-|
①②口③ |----|
①②口③ |----|
40
口口②① |①-②-|
⑥⑥②① |--③-|
③③⑤⑤ |--④-|
口口④④ |⑤-⑥-|
41
①①口口 |①-②-|
口口②② |--③-|
③③口口 |----|
口④④口 |④---|
42
③④④③ |①-②-|
口①①口 |--③-|
口②②口 |--④-|
口⑤⑤口 |--⑤-|
43
③口口③ |--①-|
②②②② |②---|
①①①① |③---|
口口口口 |----|
44
③④④③ |①-②-|
口①②口 |--③-|
口①②口 |--④-|
口⑤⑤口 |--⑤-|
45
③口口③ |--①-|
②②②② |②---|
①①①① |③---|
口口口口 |----|
46
④口口④ |①-②-|
⑤③③⑤ |--③-|
②口口② |--④-|
①口口① |⑤---|
47
口口口口 |①-②-|
口口口口 |--③-|
①②口③ |----|
①②口③ |----|
48
①①口口 |----|
②②①① |①-②-|
③③②② |③---|
口口③③ |----|
49
口口②① |①-②-|
口③③口 |--③-|
口③③口
①②口口

口口口口
口口口口
口口口口 |--④-|
口⑥⑤④ |⑤-⑥-|
50
⑤④④⑤ |①-②-|
③口口③ |③---|
①②②① |④---|
口⑥⑥口 |⑤-⑥-|
51
口④④口 |①---|
③口口③ |②---|
口②②口 |③---|
①口口① |④---|
52
口口口口 |①-②-|
⑥⑤⑤⑥ |③---|
④③③④ |④---|
①②②① |⑤-⑥-|
53
①口口① |①---|
口④④口 |②---|
口③③口 |③---|
口②②口 |④---|
54
①口口① |①-②-|
②⑥⑥② |③---|
③⑤⑤③ |④---|
口④④口 |⑤-⑥-|
55
②①①② |①---|
③口口③ |②---|
④口口④ |③---|
口口口口 |④---|
56
口口口口 |①---|
口口口口 |②---|
④③③④ |③---|
②①①② |④---|
57
③②②③ |①-②-|
口①①口 |③---|
④⑥⑥④ |④---|
⑤口口⑤ |⑤-⑥-|
58
口口口口 |①---|
②①①② |②---|
③⑤⑤③ |③---|
口④④口 |④-⑤-|
59
④口口④ |①---|
③①①③ |②-③-|
②⑥⑥② |④---|
口⑤⑤口 |⑤-⑥-|
60
②口口② |①---|
③①①③ |②---|
④口口④ |③---|
口口口口 |④---|
61
口①④④ |①-②-|
⑤⑤②口 |③---|
口③口口 |④---|
口口口口 |⑤---|
62
④④口口 |①-②-|
口口③③ |③---|
⑥⑥②② |④---|
⑤⑤①① |⑤-⑥-|
63
口口④④ |①---|
①①③③ |②---|
口口②② |③---|
口口口口 |④---|
64
口④④口 |①---|
③口口③ |②---|
口②②口 |③---|
①口口① |④---|
65
口④⑤口 |①-②-|
④③③⑤ |③---|
口②②口 |④---|
口①①口 |⑤---|
66
口⑥⑤④ |①-②-|
口口口口 |--③-|
口口口口 |④-⑤-|
①②③口 |--⑥-|
67
④④④④ |①-②-|
①②③口 |--③-|
口③②① |--④-|
口口口口 |----|


不确定度: 0

最終更新:2012年11月11日 17:37