I love マミー
荒牧陽子

BASIC

Level: 4
BPM: 160
Notes: 288

1
口口口口 |----|
口口口口 |----|
口口口口 |----|
口口口口 |----|
2
口④④口 |①---|
口③③口 |②---|
口②②口 |③---|
口①①口 |④---|
3
口口口口 |①---|
①口口② |--②-|
口口口口 |----|
口口口口 |----|
4
口口口④ |①---|
口①口③ |--②-|
口口②口 |--③-|
口口口口 |④---|
5
口口口口 |----|
口口口口 |----|
口口口口 |----|
口口口口 |----|
6
④口口口 |①---|
③口①口 |--②-|
口②口口 |--③-|
口口口口 |④---|
7
口口口口 |----|
口口口口 |①---|
口口口口 |----|
口①①口 |----|
8
口口口④ |①---|
口①口③ |--②-|
口口②口 |--③-|
口口口口 |④---|
9
口口口口 |----|
口口口口 |----|
口口口口 |----|
口口口口 |----|
10
④口口口 |①---|
③口①口 |--②-|
口②口口 |--③-|
口口口口 |④---|
11
口④④口 |①---|
口③③口 |②---|
口②②口 |③---|
口①①口 |④---|
12
口口口口 |----|
口口口口 |①-②-|
口②②口 |----|
口①①口 |----|
13
口口口口 |①---|
③口④口 |②---|
口②口① |③-④-|
口口口口 |----|
14
①口口② |----|
口口口口 |①-②-|
口口口口 |----|
口口口口 |----|
15
口口口口 |①-②-|
口④口口 |③---|
口③②① |④---|
口口口口 |----|
16
③口口口 |----|
口口口口 |①-②-|
②口口口 |--③-|
①口口口 |----|
17
口口口口 |①---|
①口②口 |②---|
口④口③ |③-④-|
口口口口 |----|
18
①②③④ |--①-|
口⑦⑥⑤ |②-③-|
口口口口 |④-⑤-|
口口口口 |⑥-⑦-|
19
口③③口 |①---|
口口口口 |②---|
口②②口 |③---|
口①①口 |----|
20
口口口口 |----|
口口③③ |①-②-|
①②口口 |--③-|
口口口口 |----|
21
口口口口 |①---|
③口④口 |②---|
口②口① |③-④-|
口口口口 |----|
22
①③③② |----|
口口口口 |①-②-|
口口口口 |--③-|
口口口口 |----|
23
口口口口 |①---|
①口②口 |②---|
口③口④ |③---|
口口口口 |④---|
24
口口口口 |----|
口口口口 |①-②-|
口口口口 |----|
口①②口 |----|
25
口口口口 |①---|
①口②口 |②-③-|
口⑤④③ |④-⑤-|
口口口口 |----|
26
口②②口 |----|
口①①口 |①-②-|
口口口口 |----|
口口口口 |----|
27
口口口口 |①---|
④口③口 |②---|
口②口① |③---|
口口口口 |④---|
28
口口口② |----|
口口口① |①-②-|
口口口口 |----|
口口口口 |----|
29
口④④口 |①---|
口③③口 |②---|
口②②口 |③---|
口①①口 |④---|
30
口口口口 |----|
口口口口 |①---|
口①口口 |----|
口口口口 |----|
31
口口④口 |①---|
口③口口 |②---|
口口②口 |③---|
口①口口 |④---|
32
口口口口 |----|
口口口口 |---①|
口①口口 |----|
口口口口 |----|
33
口口口口 |-①--|
口②口口 |----|
口口①口 |②---|
口口口口 |----|
34
口口口口 |①---|
口③③① |----|
口②②口 |②---|
口口口口 |--③-|
35
口①②口 |----|
口口口口 |----|
口口口口 |----|
口口口口 |①--②|
36
口口口口 |--①-|
口①②口 |-②--|
口③④口 |③--④|
口口口口 |----|
37
口口口口 |①---|
口口口口 |----|
口口口口 |----|
口①①口 |----|
38
口①①口 |①---|
口口口口 |----|
口②②口 |②---|
口③③口 |---③|
39
口口口口 |----|
口①①口 |①---|
口口口口 |----|
口口口口 |----|
40
口口口口 |①---|
①口②③ |②-③-|
口⑤口④ |--④-|
口口口口 |--⑤-|
41
口口口口 |①-②-|
口口口口 |--③-|
①口口口 |----|
②口口③ |----|
42
口口口口 |①---|
①口②③ |②-③-|
口⑤口④ |--④-|
口口口口 |--⑤-|
43
口口口口 |①-②-|
口口口口 |--③-|
①口口口 |----|
②口口③ |----|
44
口口口口 |①---|
①①②② |----|
口口口口 |-②--|
口口口口 |----|
45
口口口口 |①---|
口②口口 |----|
口①①口 |②---|
口口口口 |----|
46
口口口口 |①---|
口口①口 |----|
口②口口 |②---|
口口口口 |----|
47
口口口口 |①---|
口口口口 |----|
口口①口 |----|
口口口口 |----|
48
口口口口 |①---|
②口口② |----|
①口口① |②---|
口口口口 |----|
49
口④④口 |①---|
口③③口 |②---|
口②②口 |③---|
口①①口 |④---|
50
口口口口 |①---|
①口口② |----|
①口口② |②---|
口口口口 |----|
51
口③③口 |①---|
口②②口 |--②-|
口①①口 |----|
口口口口 |③---|
52
口口口口 |----|
口口口口 |①-②-|
口②②口 |----|
口①①口 |----|
53
口口口口 |①---|
③口④口 |②---|
口②口① |③-④-|
口口口口 |----|
54
①口口② |----|
口口口口 |①-②-|
口口口口 |----|
口口口口 |----|
55
口口口口 |①---|
③口④口 |②---|
口②口① |③-④-|
口口口口 |----|
56
③口口口 |----|
口口口口 |①-②-|
②口口口 |--③-|
①口口口 |----|
57
口口口口 |①---|
①口②口 |②---|
口④口③ |③-④-|
口口口口 |----|
58
①②③④ |--①-|
口⑦⑥⑤ |②-③-|
口口口口 |④-⑤-|
口口口口 |⑥-⑦-|
59
口③③口 |①---|
口口口口 |②---|
口②②口 |③---|
口①①口 |----|
60
口口口口 |----|
口口③③ |①-②-|
①②口口 |--③-|
口口口口 |----|
61
口口口口 |①---|
③口④口 |②---|
口②口① |③-④-|
口口口口 |----|
62
①③③② |----|
口口口口 |①-②-|
口口口口 |--③-|
口口口口 |----|
63
口口口口 |①---|
①口②口 |②---|
口③口④ |③---|
口口口口 |④---|
64
口口口口 |----|
口口口口 |①-②-|
口口口口 |----|
口①②口 |----|
65
口口口口 |①---|
①口②口 |②---|
口④口③ |③-④-|
口口口口 |----|
66
口②②口 |----|
口①①口 |①-②-|
口口口口 |----|
口口口口 |----|
67
口口口口 |①---|
④口③口 |②---|
口②口① |③---|
口口口口 |④---|
68
口口口② |----|
口口口① |①-②-|
口口口口 |----|
口口口口 |----|
69
口④④口 |①---|
口③③口 |②---|
口②②口 |③---|
口①①口 |④---|
70
口口口口 |----|
口②②口 |①-②-|
口①①口 |----|
口口口口 |----|
71
口口口口 |----|
口口口口 |①---|
口①口口 |----|
口口口口 |----|
72
口口口口 |----|
口口口口 |①---|
口口①口 |----|
口口口口 |----|
73
口口口口 |----|
①①①① |①---|
口口口口 |----|
口口口口 |----|
74
口④④口 |①---|
口③③口 |②---|
口②②口 |③---|
口①①口 |④---|
75
口口口口 |----|
口口口口 |----|
口口口口 |----|
口口口口 |----|
76
口口口口 |①---|
③③③③ |--②-|
口②②口 |--③-|
口①①口 |----|


不确定度: 0

最終更新:2012年11月11日 17:36