INFORMER
lecca

EXTREME

Level: 9
BPM: 112
Notes: 777

1
口口口口 |----|
口口口口 |----|
口口口口 |----|
口口口口 |----|
2
⑧口口⑥ |①-②-|
⑩⑦②④ |③-④⑤|
⑨⑤①③ |-⑥⑦⑧|
⑩⑦②④ |⑨-⑩-|
3
⑧口口⑥ |①-②-|
⑩⑦②④ |③-④⑤|
⑨⑤①③ |-⑥⑦⑧|
⑩⑦②④ |⑨-⑩-|
4
⑧口口⑥ |①-②-|
⑩⑦②④ |③-④⑤|
⑨⑤①③ |-⑥⑦⑧|
⑩⑦②④ |⑨-⑩-|
5
口口⑦⑧ |①-②-|
⑨⑥②④ |③-④-|
⑤⑤①③ |⑤-⑥⑦|
⑨⑥②④ |⑧-⑨-|
6
⑧⑤③⑥ |①-②-|
⑩⑦②④ |③-④⑤|
⑨⑤①③ |-⑥⑦⑧|
⑩⑦②④ |⑨-⑩-|
7
⑧⑤③⑥ |①-②-|
⑩⑦②④ |③-④⑤|
⑨⑤①③ |-⑥⑦⑧|
⑩⑦②④ |⑨-⑩-|
8
⑧⑤③⑥ |①-②-|
⑩⑦②④ |③-④⑤|
⑨⑤①③ |-⑥⑦⑧|
⑩⑦②④ |⑨-⑩-|
9
⑧口口⑥ |①-②-|
⑩⑦②④ |③-④⑤|
⑨⑤①③ |-⑥⑦⑧|
⑩⑦②④ |⑨-⑩-|
10
口②②口 |①--②|
⑧口口① |----|
③④⑤⑥ |③④⑤⑥|
⑧⑦⑦① |-⑦⑧-|
11
口②②⑦ |①--②|
⑨⑧⑤① |--③-|
③③口⑥ |④⑤⑥⑦|
⑨⑧④① |-⑧⑨-|
12
口②②口 |①--②|
⑨③⑧① |--③-|
⑦⑥⑤④ |④⑤⑥⑦|
⑨③口① |-⑧⑨-|
13
口②②口 |①--②|
口③④① |③-④-|
口口口口
口③④①

口口口口
口口口⑤
口⑥⑦⑧ |⑤---|
口口口⑤ |-⑥⑦⑧|
14
口⑤口口 |①②③④|
②①③⑥ |-⑤⑥⑦|
④⑦口口
口口③⑥

口口口⑩
⑫⑨口口
口口⑧⑪ |⑧-⑨⑩|
⑫⑨口口 |-⑪⑫-|
15
④口口口 |①-②③|
口口②⑤ |-④⑤⑥|
⑥③①口
口口②⑤

口口⑧⑦
⑫⑨口口
口口⑩⑪ |⑦⑧⑨⑩|
⑫⑨口口 |-⑪⑫-|
16
口⑥口口 |①-②③|
口口②⑤ |-④⑤⑥|
③①④口
口口②⑤

口口⑦口
⑩⑧口口
口⑪口⑨ |⑦-⑧⑨|
⑩⑧口口 |--⑩⑪|
17
④⑤口口 |①②③④|
口口③⑥ |⑤-⑥⑦|
②⑦①口
口口③⑥

口口口口
⑪⑨口口
口口⑧⑩ |⑧-⑨⑩|
⑪⑨口口 |--⑪-|
18
④⑥⑧⑤ |①②③④|
口口③⑦ |⑤⑥⑦⑧|
①②口口
口口③⑦

口口口⑭
⑮⑪口口
⑨⑬⑫⑩ |⑨⑩⑪⑫|
⑮⑪口口 |⑬⑭⑮-|
19
①②口口 |①②③④|
口口③⑦ |⑤⑥⑦-|
④⑥口⑤
口口③⑦

口口⑨⑧
⑭⑩口口
⑫口⑪⑬ |⑧⑨⑩⑪|
⑭⑩口口 |⑫⑬⑭-|
20
①②口口 |①②③④|
口口③⑥ |-⑤⑥⑦|
⑤④⑦口
口口③⑥

口口口⑩
⑫⑨口口
口⑪⑬⑧ |⑧-⑨⑩|
⑫⑨口口 |-⑪⑫⑬|
21
④⑥⑦⑦ |①②③④|
口⑧⑤⑤ |⑤⑥⑦⑧|
②口口①
口口③③

口口口口
⑫口口⑫
⑬⑩⑨⑨ |⑨⑩-⑪|
⑪口口⑪ |--⑫⑬|
22
④⑥⑤口 |①②③④|
口口③⑦ |⑤⑥⑦⑧|
⑧②①口
口口③⑦

口口⑭⑫
⑬⑪口口
口口⑩⑨ |⑨⑩⑪⑫|
⑬⑪口口 |--⑬⑭|
23
⑦①⑨⑧ |①-②③|
⑫⑩②⑥ |④⑤⑥⑦|
⑤③④⑪ |⑧⑨⑩⑪|
⑫⑩②⑥ |--⑫-|
24
③⑤④口 |①-②③|
口口②⑥ |④⑤⑥⑦|
⑦①①口
口口②⑥

口口口⑪
⑫⑩口口
口口⑨⑧ |⑧⑨⑩⑪|
⑫⑩口口 |--⑫-|
25
④⑥⑤口 |①②③④|
⑧口③⑦ |⑤⑥⑦⑧|
①②口口
口口③⑦

⑫口口⑫
口⑨口口
⑪口⑩⑪ |⑨⑩-⑪|
口口口口 |--⑫-|
26
⑤口口⑥ |①-②-|
⑨⑦②④ |③-④⑤|
③①⑩⑧ |-⑥⑦-|
⑨⑦②④ |⑧-⑨⑩|
27
⑦②⑤口 |①②③④|
口口③⑥ |⑤-⑥⑦|
④①口口
口口③⑥

口口⑫⑧
⑬⑨口口
⑪口⑭⑩ |-⑧⑨⑩|
⑬⑨口口 |⑪⑫⑬⑭|
28
①④口口 |①②③④|
⑧口③⑦ |⑤⑥⑦⑧|
⑥②口⑤
口口③⑦

口⑫⑪口
口⑩口口
⑭口⑨⑬ |-⑨⑩⑪|
口⑩⑮口 |⑫⑬⑭⑮|
29
③⑥口③ |①②③④|
①④口① |⑤⑥⑦⑧|
⑦②口⑦
⑤⑧口⑤

口口口口
⑨口口⑨
口口口口 |⑨---|
口口口口 |----|
30
口口⑦口 |①-②-|
⑧⑥②④ |③-④-|
①③⑤⑨ |⑤-⑥⑦|
⑧⑥②④ |--⑧⑨|
31
口口⑦口 |①-②-|
⑧⑥②④ |③-④-|
①③⑤口 |⑤-⑥⑦|
⑧⑥②④ |--⑧-|
32
口口口口 |①-②-|
⑧⑥②④ |③-④-|
①③⑤⑦ |⑤-⑥-|
⑧⑥②④ |⑦-⑧-|
33
⑥③③⑥ |①-②-|
⑤口②⑤ |③---|
④①①④ |④--⑤|
⑤口口⑤ |--⑥-|
34
口⑤⑥⑩ |①-②-|
⑨⑦②④ |③-④⑤|
③①口⑧ |-⑥⑦-|
⑨⑦②④ |⑧-⑨⑩|
35
口⑤口⑨ |①-②-|
⑧⑥②④ |③-④⑤|
①③⑦⑦ |--⑥-|
⑧⑥②④ |⑦-⑧⑨|
36
口⑤⑥⑩ |①-②-|
⑨⑦②④ |③-④⑤|
①③⑧⑧ |-⑥⑦-|
⑨⑦②④ |⑧-⑨⑩|
37
口③口口 |①-②③|
口口②⑤ |④-⑤-|
①④口口
口口②⑤

⑦口口⑦
⑧口口⑧
⑥口口⑥ |⑥--⑦|
口口口口 |--⑧-|
38
③④口口 |①-②③|
口口②⑤ |④-⑤⑥|
⑥①①口
口口②⑤

口口口口
⑩⑧口口
口口⑨⑦ |-⑦⑧⑨|
⑩⑧口口 |--⑩-|
39
⑤①①⑩ |①-②③|
⑪⑨②⑥ |④⑤⑥⑦|
③⑦⑧④ |-⑧⑨⑩|
⑪⑨②⑥ |--⑪-|
40
⑥①①口 |①-②③|
口口②⑤ |④-⑤⑥|
③④口口
口口②⑤

口口⑩口
⑪⑨口口
口口⑧⑦ |⑦⑧⑨⑩|
⑪⑨口口 |--⑪-|
41
口口⑥⑥ |①②③-|
口⑤③③ |④⑤⑥-|
②口④④
口口①①

口口口口
⑩口⑨口
⑧⑧口口 |⑦--⑧|
⑩⑦⑦口 |⑨-⑩-|
42
③②②③ |①--②|
⑨口口① |--③-|
④⑤⑥⑦ |④⑤⑥⑦|
⑨⑧⑧① |-⑧⑨-|
43
口②②⑦ |①--②|
⑨⑧⑤① |--③-|
③③口⑥ |④⑤⑥⑦|
⑨⑧④① |-⑧⑨-|
44
口②②口 |①--②|
⑨③⑧① |--③-|
⑦⑥⑤④ |④⑤⑥⑦|
⑨③口① |-⑧⑨-|
45
口口①① |①-②-|
口⑥口⑤ |③④⑤⑥|
口④口③
口口②②

⑦⑦⑦⑦
⑧口口口
口口口口 |⑦---|
⑧口口口 |--⑧-|
46
口②②口 |①--②|
⑧口口① |----|
③④⑤⑥ |③④⑤⑥|
⑧⑦⑦① |-⑦⑧-|
47
口②②⑦ |①--②|
⑨⑧⑤① |--③-|
③③口⑥ |④⑤⑥⑦|
⑨⑧④① |-⑧⑨-|
48
口②②口 |①--②|
⑨③⑧① |--③-|
⑦⑥⑤④ |④⑤⑥⑦|
⑨③口① |-⑧⑨-|
49
口③③口 |①-②③|
口④⑥① |④⑤⑥⑦|
⑦口②⑤
口④⑥①

口口口口
⑨口口⑧
口口口口 |⑧-⑨-|
⑨口口⑧ |----|
50
⑧口口⑥ |①-②-|
⑩⑦②④ |③-④⑤|
⑨⑤①③ |-⑥⑦⑧|
⑩⑦②④ |⑨-⑩-|
51
⑧口口⑥ |①-②-|
⑩⑦②④ |③-④⑤|
⑨⑤①③ |-⑥⑦⑧|
⑩⑦②④ |⑨-⑩-|
52
⑧口口⑥ |①-②-|
⑩⑦②④ |③-④⑤|
⑨⑤①③ |-⑥⑦⑧|
⑩⑦②④ |⑨-⑩-|
53
口④口③ |①-②-|
口口②② |③④⑤⑥|
口⑥口⑤
口口①①

⑪口口口
口口⑧⑧
⑪口⑩口 |⑦-⑧-|
口⑨⑦⑦ |⑨⑩⑪-|
54
口口口① |①--②|
口②②口 |----|
口口口① |----|
口口口口 |----|

不確定度: 0

タグ:

+ タグ編集
  • タグ:

このサイトはreCAPTCHAによって保護されており、Googleの プライバシーポリシー利用規約 が適用されます。

最終更新:2014年08月01日 00:16