I love マミー
荒牧陽子

EXTREME

Level: 8
BPM: 160
Notes: 736

1
口口口口 |----|
口口口口 |----|
口口口口 |----|
口口口口 |----|
2
④④④④ |①---|
③③③③ |②---|
②②②② |③---|
①①①① |④---|
3
口口口口 |①②③-|
口口口口 |--④⑤|
口口⑤④
①②③口

口口口口
口⑦⑧口
口⑥口口 |⑥---|
口⑨⑩口 |⑦⑧⑨⑩|
4
①②③⑤ |①②③-|
④⑧⑦⑥ |--④-|
口口口口 |--⑤-|
口口口口 |⑥⑦⑧-|
5
口口口口 |----|
口口口口 |①---|
①①②② |----|
口口口口 |②---|
6
①②③⑤ |①②③-|
④⑧⑦⑥ |--④-|
口口口口 |--⑤-|
口口口口 |⑥⑦⑧-|
7
口口口口 |----|
口②②口 |①---|
①①①① |----|
口口口口 |②---|
8
口口口口 |①②③-|
口口口口 |--④-|
⑥⑦⑧④ |--⑤-|
⑤③②① |⑥⑦⑧-|
9
①②③口 |①②③-|
口口口口 |-④⑤-|
⑦⑧口⑥ |⑥-⑦⑧|
口口⑤④ |----|
10
⑥⑦⑧口 |①②③-|
①②③⑤ |--④-|
口口口④ |--⑤-|
口口口口 |⑥⑦⑧-|
11
④④④④ |①---|
③③③③ |②---|
②②②② |③---|
①①①① |④---|
12
口口口口 |----|
口②②口 |①-②-|
口①①口 |----|
口口口口 |----|
13
④②②④ |①-②-|
口⑥⑥口 |③-④-|
口⑤⑤口 |⑤-⑥-|
①③③① |----|
14
口口口口 |----|
①口口② |①-②-|
①口口② |----|
口口口口 |----|
15
②③③② |①-②-|
口⑥⑥口 |③-④-|
口⑤⑤口 |⑤-⑥-|
④①①④ |----|
16
口口口口 |----|
①③③② |①-②-|
①③③② |--③-|
口口口口 |----|
17
④③③④ |①-②-|
口⑥⑥口 |③-④-|
口⑤⑤口 |⑤-⑥-|
①①②② |----|
18
⑤④④⑤ |--①-|
②口口③ |②-③-|
①口口① |④-⑤-|
⑦⑥⑥⑦ |⑥-⑦-|
19
③③③③ |①---|
②②②② |②---|
①①①① |③---|
口口口口 |----|
20
口口口口 |----|
③③③③ |①-②-|
口②②口 |--③-|
口①①口 |----|
21
⑥口口⑥ |①-②-|
⑤口口⑤ |③-④-|
②④④② |⑤-⑥-|
①③③① |----|
22
口口口口 |----|
③③③③ |①-②-|
口②②口 |--③-|
口①①口 |----|
23
⑥口口⑦ |①-②-|
⑧⑤⑤⑨ |③-④-|
②④④② |⑤---|
①③③① |⑥⑦⑧⑨|
24
口①①口 |①---|
口口口口 |②-③-|
口③③口 |----|
口②②口 |----|
25
④⑥⑥④ |①-②-|
⑥②②⑥ |③-④-|
⑤③③⑤ |⑤-⑥-|
①口口① |----|
26
口口口口 |----|
口口口口 |①-②-|
口②②口 |----|
口①①口 |----|
27
④口口④ |①-②-|
⑥②②⑥ |③-④-|
⑤③③⑤ |⑤---|
①口口① |⑥---|
28
口口口口 |--①-|
口③③口 |②-③-|
口②②口 |----|
口①①口 |----|
29
④④④④ |①---|
③③③③ |②---|
②②②② |③---|
①①①① |④---|
30
口口口口 |----|
口口口口 |①-②-|
口②②口 |----|
口①①口 |----|
31
⑥口口⑧ |①②-③|
⑤⑨⑨⑦ |④-⑤⑥|
②口口④ |-⑦⑧-|
①口口③ |⑨---|
32
口①①② |①---|
口口口口 |---②|
口口口口
口口口口

④⑥⑥口
⑤口口③
口口口口 |-③-④|
口口口口 |-⑤-⑥|
33
口口口口 |-①--|
口①①口 |----|
③口口⑤ |②-③-|
②口口④ |④-⑤-|
34
口口口口 |①---|
口口口口 |----|
口口口口
口①①口

③口口③
⑤②②⑤
⑦④④⑦ |②③-④|
口⑥⑥口 |⑤-⑥⑦|
35
⑥②④口 |----|
⑤①③口 |----|
口口口口 |①-②③|
口口口口 |④-⑤⑥|
36
⑨口口② |-①②-|
口口口① |③④-⑤|
⑧④⑥⑧ |⑥-⑦⑧|
⑦③⑤⑦ |--⑨-|
37
口①②③ |①-②-|
口口口口 |③---|
口口口口 |----|
④口口④ |④---|
38
②①①② |①-②-|
③口口③ |③-④-|
④口口④
口口口口

⑩⑨⑨⑩
口⑦⑦口
口⑧⑧口 |⑤⑥-⑦|
⑥⑤⑤⑥ |⑧-⑨⑩|
39
口口口口 |-①②-|
①口口② |③---|
③口口③ |----|
口口口口 |----|
40
口⑤④④ |①---|
③③口口 |②-③-|
②②口口 |--④-|
口口①① |--⑤-|
41
⑤⑤口口 |①-②-|
口口①口 |--③-|
③③口② |④---|
④④口口 |⑤---|
42
口⑤④④ |①---|
③③口口 |②-③-|
②②口口 |--④-|
口口①① |--⑤-|
43
⑤⑤口口 |①-②-|
口口①口 |--③-|
③③口② |④---|
④④口口 |⑤---|
44
口口口口 |①②-③|
①②④③ |④-⑤⑥|
⑤⑥⑧⑦ |-⑦⑧-|
⑨⑨⑨⑨ |⑨---|
45
①①①① |①---|
④④⑤⑤ |----|
②②③③ |②-③-|
口口口口 |④-⑤-|
46
⑤⑥⑧⑦ |①-②③|
⑩口口⑩ |④-⑤⑥|
⑨⑪⑪⑨ |-⑦⑧-|
①②④③ |⑨⑩-⑪|
47
④⑥⑥⑤ |①-②③|
口①①口 |-④--|
口口口口 |⑤---|
③②②③ |⑥---|
48
口口口口 |①---|
②②②② |----|
①①①① |②---|
口口口口 |----|
49
①①①① |①---|
④③③④ |②---|
①②②① |③---|
口口口口 |④---|
50
口口口口 |①-②-|
口口口口 |③-④-|
⑥⑧⑦⑤ |⑤-⑥-|
②④③① |⑦-⑧-|
51
⑧②⑥④ |①②-③|
①⑦③⑤ |④-⑤⑥|
口口口口 |-⑦⑧-|
⑨⑨⑨⑨ |⑨---|
52
口口口口 |----|
口②②口 |①-②-|
口①①口 |----|
口口口口 |----|
53
④②②④ |①-②-|
口⑥⑥口 |③-④-|
口⑤⑤口 |⑤-⑥-|
①③③① |----|
54
口口口口 |----|
①口口② |①-②-|
①口口② |----|
口口口口 |----|
55
②③③② |①-②-|
口⑥⑥口 |③-④-|
口⑤⑤口 |⑤-⑥-|
④①①④ |----|
56
口口口口 |----|
①③③② |①-②-|
①③③② |--③-|
口口口口 |----|
57
④③③④ |①-②-|
口⑥⑥口 |③-④-|
口⑤⑤口 |⑤-⑥-|
①①②② |----|
58
⑤④④⑤ |--①-|
②口口③ |②-③-|
①口口① |④-⑤-|
⑦⑥⑥⑦ |⑥-⑦-|
59
③③③③ |①---|
②②②② |②---|
①①①① |③---|
口口口口 |----|
60
口口口口 |----|
口口口口 |①-②-|
口②②口 |----|
口①①口 |----|
61
⑥口口⑥ |①-②-|
⑤口口⑤ |③-④-|
②④④② |⑤-⑥-|
①③③① |----|
62
口口口口 |----|
③③③③ |①-②-|
口②②口 |--③-|
口①①口 |----|
63
⑥口口⑦ |①-②-|
⑧⑤⑤⑨ |③-④-|
②④④② |⑤---|
①③③① |⑥⑦⑧⑨|
64
口①①口 |①---|
口口口口 |②-③-|
口③③口 |----|
口②②口 |----|
65
④⑥⑥④ |①-②-|
⑥②②⑥ |③-④-|
⑤③③⑤ |⑤-⑥-|
①口口① |----|
66
口口口口 |----|
口口口口 |①-②-|
口②②口 |----|
口①①口 |----|
67
④口口④ |①-②-|
⑥②②⑥ |③-④-|
⑤③③⑤ |⑤---|
①口口① |⑥---|
68
口口口口 |--①-|
口③③口 |②-③-|
口②②口 |----|
口①①口 |----|
69
④④④④ |①---|
③③③③ |②---|
②②②② |③---|
①①①① |④---|
70
口口口口 |----|
口②②口 |①-②-|
口①①口 |----|
口口口口 |----|
71
⑧⑨⑨⑧ |①②-③|
⑦⑥⑥⑦ |④-⑤⑥|
②⑤⑤④ |-⑦⑧-|
①口口③ |⑨---|
72
⑧⑨⑨⑧ |①②-③|
⑦⑥⑥⑦ |④-⑤⑥|
②⑤⑤④ |-⑦⑧-|
①口口③ |⑨---|
73
⑧⑨⑨⑧ |①②-③|
⑦⑥⑥⑦ |④-⑤⑥|
②⑤⑤④ |-⑦⑧-|
①口口③ |⑨---|
74
④④④④ |①---|
③③③③ |②---|
②②②② |③---|
①①①① |④---|
75
口⑩⑨口 |①-②③|
口⑧⑤口 |-④⑤-|
⑥③④⑦ |⑥-⑦-|
口②①口 |⑧⑨⑩-|
76
⑨口口⑨ |①②③④|
③⑧⑧⑤ |⑤-⑥⑦|
⑦②④⑦ |-⑧⑨-|
⑥①①⑥ |----|


不确定度: 0

最終更新:2012年11月11日 17:36