Icicles
Jimmy Weckl

BASIC

Level: 4
BPM: 158
Notes: 288

1
口口口口 |----|
口口口口 |----|
口口口口 |----|
口口口口 |----|
2
口口口口 |----①-|
⑤①②⑤ |--②---|
口④③口 |③---④-|
口口口口 |--⑤---|
3
口口口口 |----|
口口口口 |①---|
①口口① |----|
口口口口 |----|
4
②口口② |①---|
口口口口 |--②-|
口口口口 |----|
①口口① |----|
5
口口口口 |----|
口口口口 |----|
口口口口 |----|
口口口口 |----|
6
口口口口 |①---②-|
③口口⑥ |--③---|
②口口⑤ |④---⑤-|
①口口④ |--⑥---|
7
口口口口 |--①-|
口口⑤口 |②---|
口②④口 |③-④-|
口③①口 |--⑤-|
8
口①③口 |①---|
④②口④ |②-③-|
④口口④ |----|
口口口口 |④---|
9
口⑥⑥口 |①-②-|
口⑤⑤口 |③---|
口④④口 |④--⑤|
口③②① |--⑥-|
10
口口口口 |----|
口口口口 |①---|
口②口口 |----|
口①①口 |--②-|
11
口④⑤口 |①--②|
口②③口 |--③-|
口口①口 |--④-|
口口口口 |⑤---|
12
口口口口 |----|
①②口口 |①---|
①口口口 |----|
口口口口 |--②-|
13
口口口口 |①--②|
口口②④ |--③-|
口①③⑤ |--④-|
口口口口 |⑤---|
14
口①①口 |----|
口口②口 |①---|
口口口口 |----|
口口口口 |--②-|
15
口口口口 |①--②|
口①口口 |--③-|
口③②口 |--④-|
口⑤④口 |⑤---|
16
口口口口 |----|
口口口① |①---|
口口②① |----|
口口口口 |--②-|
17
口口口口 |①--②|
⑤③①口 |--③-|
④②口口 |--④-|
口口口口 |⑤---|
18
①④②③ |①---|
口口口口 |②-③-|
口口口口 |----|
口口口口 |④---|
19
口口①口 |---①|
口口②口 |--②-|
口口口口 |----|
口口③口 |③---|
20
口①口口 |①---|
口④口口 |②-③-|
口②口口 |----|
口③口口 |④---|
21
①口口口 |---①|
②口口口 |--②-|
口口口③ |--③-|
口口口④ |④---|
22
口口口口 |----|
口口口口 |①---|
口②口口 |----|
口①①口 |--②-|
23
口④⑤口 |①--②|
口②③口 |--③-|
口口①口 |--④-|
口口口口 |⑤---|
24
口口口口 |----|
①②口口 |①---|
①口口口 |----|
口口口口 |--②-|
25
口口口口 |①--②|
口口②④ |--③-|
口①③⑤ |--④-|
口口口口 |⑤---|
26
口①①口 |----|
口口②口 |①---|
口口口口 |----|
口口口口 |--②-|
27
口口口口 |①--②|
口①口口 |--③-|
口③②口 |--④-|
口⑤④口 |⑤---|
28
口口口口 |----|
口口口① |①---|
口口②① |----|
口口口口 |--②-|
29
口口口口 |①--②|
⑤③①口 |--③-|
④②口口 |--④-|
口口口口 |⑤---|
30
⑤口口① |①---②-|
口口口② |--③---|
口口口③ |④---|
口口口④ |--⑤-|
31
口口口口 |①---|
①口口口 |----|
②③口口 |--②-|
口口口口 |-③--|
32
口口③③ |①---|
口口②② |--②-|
口口①口 |--③-|
口口口口 |----|
33
口口口口 |①---|
口①口口 |--②-|
②②口口 |--③-|
③③口口 |----|
34
口口口口 |----|
口①口口 |--①-|
口②③口 |②---|
口口口口 |--③-|
35
口口口口 |①---|
③口①③ |--②-|
②口口② |--③-|
口口口口 |----|
36
口①④口 |①---|
口②口口 |②-③-|
口③口口 |----|
口口口口 |④---|
37
③口口口 |①-②-|
④口①口 |----|
⑤口②口 |③---|
口口口口 |④-⑤-|
38
口口口① |----|
口口口② |①---|
口口口③ |②-③-|
口口口口 |----|
39
口①①口 |①---|
口②②口 |②-③-|
口③③口 |----|
口口口口 |----|
40
口口口口 |----|
口口口口 |----|
口口口口 |----|
口口口口 |----|
41
②口口口 |①---|
口口口口 |--②-|
口口口口 |----|
口口口① |----|
42
口①①口 |---①|
口②②口 |--②-|
口③③口 |-③--|
口④④口 |④---|
43
①②③口 |①---|
口口口口 |--②-|
口口口口 |----|
口口口口 |③---|
44
口口口口 |①---|
口口口口 |②---|
口口口口 |③---|
④③②① |④---|
45
口口口口 |①---|
口①①口 |②-③-|
口口②③ |--④-|
口口④⑤ |--⑤-|
46
口③口口 |--①-|
口②口口 |--②-|
口①口口 |--③-|
口口口口 |----|
47
口口口口 |①---|
①口②③ |②-③-|
口口口口 |--④-|
口口④⑤ |--⑤-|
48
口①口口 |----①-|
口②口口 |--②---|
口③口口 |③---|
口口口口 |----|
49
口口口口 |①---|
①口②③ |②-③-|
口口口口 |--④-|
口口④⑤ |--⑤-|
50
①口口口 |--①-|
②口口口 |--②-|
③口口口 |--③-|
口口口口 |----|
51
口口口口 |①---②-|
口口⑥③ |--③---|
口口⑤② |④---⑤-|
口口④① |--⑥---|
52
①④口口 |①---②-|
②⑤口口 |--③---|
③⑥口口 |④---⑤-|
口口口口 |--⑥---|
53
口口口口 |----|
口口口口 |----|
口口口口 |----|
口口口口 |----|
54
口口口口 |----|
口口口口 |①---|
口②口口 |----|
口①①口 |--②-|
55
口④⑤口 |①--②|
口②③口 |--③-|
口口①口 |--④-|
口口口口 |⑤---|
56
口口口口 |----|
①②口口 |①---|
①口口口 |----|
口口口口 |--②-|
57
口口口口 |①--②|
口口②④ |--③-|
口①③⑤ |--④-|
口口口口 |⑤---|
58
口①①口 |----|
口口②口 |①---|
口口口口 |----|
口口口口 |--②-|
59
口口口口 |①--②|
口①口口 |--③-|
口③②口 |--④-|
口⑤④口 |⑤---|
60
口口口口 |----|
口口口① |①---|
口口②① |----|
口口口口 |--②-|
61
口口口口 |①--②|
⑤③①口 |--③-|
④②口口 |--④-|
口口口口 |⑤---|
62
口④口① |①---②-|
口⑤口② |--③---|
口⑥口③ |④---⑤-|
口口口口 |--⑥---|
63
④口①口 |①---②-|
⑤口②口 |--③---|
⑥口③口 |④---⑤-|
口口口口 |--⑥---|
64
口④口① |①---②-|
口⑤口② |--③---|
口⑥口③ |④---⑤-|
口口口口 |--⑥---|
65
④口①口 |①---②-|
⑤口②口 |--③---|
⑥口③口 |④---⑤-|
口口口口 |--⑥---|
66
口②口① |①---|
口口口口 |--②-|
口口口口 |----|
口口口口 |----|
67
②口①口 |①---|
口口口口 |--②-|
口口口口 |----|
口口口口 |----|
68
口口口口 |①---|
口②③① |--②-|
口口口口 |----|
口口口口 |③---|
69
口口口口 |--①-|
①口口口 |----|
口③口② |②---|
口口口口 |--③-|
70
口口口口 |----|
口口口口 |①---|
②口①口 |--②-|
口口口口 |----|
71
口口口口 |----|
口口口口 |①---|
口口口口 |----|
①①①① |----|


不确定度: 0

最終更新:2012年11月11日 17:34