Icicles
Jimmy Weckl

ADVANCED

Level: 6
BPM: 158
Notes: 367

1
口口口口 |----|
口口口口 |----|
口口口口 |----|
口口口口 |----|
2
⑤④口⑤ |----①-|
口口③口 |--②---|
口②口口 |③---④-|
口口①口 |--⑤---|
3
口口口口 |----|
②口口② |①---|
口口口口 |②---|
①口口① |----|
4
口口口口 |①-②-|
④③口④ |③-④-|
①口②① |-⑤--|
口⑦⑥⑤ |⑥--⑦|
5
口③口口 |--①-|
②口口口 |-②--|
①④口口 |③---|
口口口口 |④---|
6
口口口口 |①---②-|
③口口⑥ |--③---|
②口口⑤ |④---⑤-|
①口口④ |--⑥---|
7
口口口口 |--①-|
口口⑤口 |②---|
②②④④ |③-④-|
口③①口 |--⑤-|
8
①①③③ |①---|
④②口④ |②-③-|
④口口④ |----|
口口口口 |④---|
9
口⑥⑥口 |①-②-|
口⑤⑤口 |③---|
口④④口 |④--⑤|
口③②① |--⑥-|
10
①⑤口口 |----|
②口口口 |①②③④|
③口口口 |----|
④口口口 |--⑤-|
11
口口②④ |①--②|
口①口⑤ |--③-|
口口③口 |--④-|
口口口口 |⑤---|
12
口口①⑤ |----|
口口②口 |①②③④|
口口③口 |----|
口口④口 |--⑤-|
13
④②口口 |①--②|
⑤口口① |--③-|
口③口口 |--④-|
口口口口 |⑤---|
14
⑤①口口 |----|
口②口口 |①②③④|
口③口口 |----|
口④口口 |--⑤-|
15
口口④② |①--②|
①口⑤口 |--③-|
口口口③ |--④-|
口口口口 |⑤---|
16
口口⑤① |----|
口口口② |①②③④|
口口口③ |----|
口口口④ |--⑤-|
17
②④口口 |①--②|
口⑤①口 |--③-|
③口口口 |--④-|
口口口口 |⑤---|
18
①④口口 |①---|
②口口口 |②-③-|
③口口口 |----|
口口口口 |④---|
19
口口①口 |---①|
口口②③ |--②-|
口口口口 |----|
口口口口 |③---|
20
口①④口 |①---|
口②口口 |②-③-|
口③口口 |----|
口口口口 |④---|
21
①口口口 |---①|
②口口口 |--②-|
口③口口 |--③-|
口④口口 |④---|
22
①⑤口口 |----|
②口口口 |①②③④|
③口口口 |----|
④口口口 |--⑤-|
23
口口②④ |①--②|
口①口⑤ |--③-|
口口③口 |--④-|
口口口口 |⑤---|
24
口口①⑤ |----|
口口②口 |①②③④|
口口③口 |----|
口口④口 |--⑤-|
25
④②口口 |①--②|
⑤口口① |--③-|
口③口口 |--④-|
口口口口 |⑤---|
26
⑤①口口 |----|
口②口口 |①②③④|
口③口口 |----|
口④口口 |--⑤-|
27
口口④② |①--②|
①口⑤口 |--③-|
口口口③ |--④-|
口口口口 |⑤---|
28
口口⑤① |----|
口口口② |①②③④|
口口口③ |----|
口口口④ |--⑤-|
29
②④口口 |①--②|
口⑤①口 |--③-|
③口口口 |--④-|
口口口口 |⑤---|
30
口口口口 |①---②-|
⑤⑥口口 |--③---|
④③口口 |④---|
口口②① |--⑤⑥|
31
口口口口 |①---|
口口①口 |----|
口③口口 |--②-|
口②口口 |-③--|
32
口口口③ |①---|
①口②口 |--②-|
口口口口 |--③-|
口口口口 |----|
33
口口③口 |①---|
②口口口 |--②-|
口口口① |--③-|
口口口口 |----|
34
口口口口 |----|
口④口③ |--①②|
口口②口 |③---|
口口①口 |--④-|
35
①口口口 |①---|
②口③口 |--②-|
口口口口 |--③-|
口口口口 |----|
36
③②口口 |①---|
口①口口 |②-③-|
口口④口 |----|
口口口口 |④---|
37
口口口口 |①-②-|
口口口口 |----|
④③口口 |③---|
⑤口①② |④-⑤-|
38
口口口③ |----|
口口①② |①---|
口口口口 |②-③-|
口口口口 |----|
39
③②口口 |①---|
口①口口 |②-③-|
口⑤①口 |--④-|
口④②③ |--⑤-|
40
口②口口 |--①-|
口①③③ |--②-|
口口口口 |----|
口口口口 |③---|
41
③口口口 |①--②|
④口口⑥ |--③-|
⑤口口口 |④-⑤-|
口口②① |-⑥--|
42
口口口口 |①--②|
口②①口 |--③-|
口⑤④③ |-④--|
口口口口 |⑤---|
43
①③⑤口 |①--②|
②④口口 |--③-|
口口口口 |-④--|
口口口口 |⑤---|
44
⑤口口① |①-②-|
⑥口口② |③-④-|
⑦口口③ |⑤-⑥-|
⑧口口④ |⑦-⑧-|
45
口口口口 |①---|
口①①口 |②-③-|
口②④口 |--④-|
口⑤③口 |--⑤-|
46
口③口口 |--①-|
口②口口 |--②-|
口①口口 |--③-|
口口口口 |----|
47
口口口口 |①---|
①口②③ |②-③-|
口口口口 |--④-|
口口④⑤ |--⑤-|
48
口①口口 |----①-|
口②口口 |--②---|
口③口口 |③---|
口口口口 |----|
49
口口口口 |①---|
①口②③ |②-③-|
口口口口 |--④-|
口口④⑤ |--⑤-|
50
①口口口 |--①-|
②口口口 |--②-|
③口口口 |--③-|
口口口口 |----|
51
口口口口 |①---②-|
口口⑥③ |--③---|
口口⑤② |④---⑤-|
口口④① |--⑥---|
52
①④口口 |①---②-|
②⑤口口 |--③---|
③⑥口口 |④---⑤-|
口口口口 |--⑥---|
53
口口⑤④ |-①--|
口③口口 |--②-|
口口②口 |-③-④|
口口①口 |⑤---|
54
②⑥口口 |①---|
③口①口 |②③④⑤|
④①口口 |----|
⑤口口口 |--⑥-|
55
口口②④ |①--②|
口①口⑤ |--③-|
口口③口 |--④-|
口口口口 |⑤---|
56
口口①⑤ |----|
口口②口 |①②③④|
口口③口 |----|
口口④口 |--⑤-|
57
④②口口 |①--②|
⑤口口① |--③-|
口③口口 |--④-|
口口口口 |⑤---|
58
⑤①口口 |----|
口②口口 |①②③④|
口③口口 |----|
口④口口 |--⑤-|
59
口口④② |①--②|
①口⑤口 |--③-|
口口口③ |--④-|
口口口口 |⑤---|
60
口口⑤① |----|
口口口② |①②③④|
口口口③ |----|
口口口④ |--⑤-|
61
②④口口 |①--②|
口⑤①口 |--③-|
③口口口 |--④-|
口口口口 |⑤---|
62
口④口① |①---②-|
口⑤口② |--③---|
口⑥口③ |④---⑤-|
口口口口 |--⑥---|
63
④口①口 |①---②-|
⑤口②口 |--③---|
⑥口③口 |④---⑤-|
口口口口 |--⑥---|
64
口④口① |①---②-|
口⑤口② |--③---|
口⑥口③ |④---⑤-|
口口口口 |--⑥---|
65
④口①口 |①---②-|
⑤口②口 |--③---|
⑥口③口 |④---⑤-|
口口口口 |--⑥---|
66
口④口① |①-②-|
口⑤口② |③-④-|
口⑥口③ |⑤-⑥-|
口口口口 |----|
67
④口①口 |①-②-|
⑤口②口 |③-④-|
⑥口③口 |⑤-⑥-|
口口口口 |----|
68
口④⑦① |①-②-|
口⑤⑧② |③-④-|
口⑥口③ |⑤-⑥-|
口口口口 |⑦-⑧-|
69
②⑧口⑤ |①-②-|
③口口⑥ |③-④-|
④口①⑦ |⑤-⑥-|
口口口口 |⑦-⑧-|
70
⑥口③口 |①-②-|
⑦①④口 |③-④-|
⑧②⑤口 |⑤-⑥-|
口口口口 |⑦-⑧-|
71
口口口口 |----|
口口口口 |①---|
口口口口 |----|
①①①① |----|


不确定度: 0

最終更新:2012年11月11日 17:34