Icicles
Jimmy Weckl

EXTREME

Level: 8
BPM: 158
Notes: 515

1
口口口口 |----|
口口口口 |----|
口口口口 |----|
口口口口 |----|
2
⑤④口⑤ |----①-|
口口③口 |--②---|
口②口口 |③---④-|
口口①口 |--⑤---|
3
口⑧①⑦ |①②③④|
⑥②⑨⑥ |⑤---|
口⑩③口 |⑥--⑦|
⑤④⑪⑤ |⑧⑨⑩⑪|
4
口口口口 |①-②-|
④③口④ |③-④-|
①口②① |-⑤--|
口⑦⑥⑤ |⑥--⑦|
5
口③④口 |--①-|
②⑤⑥口 |-②--|
①⑦⑧口 |③④⑤⑥|
口⑨⑩口 |⑦⑧⑨⑩|
6
口口口口 |①---②-|
③口口⑥ |--③---|
②口口⑤ |④---⑤-|
①口口④ |--⑥---|
7
口口口口 |--①-|
口口⑤口 |②---|
②②④④ |③-④-|
口③①口 |--⑤-|
8
①①③③ |①---|
④②口④ |②-③-|
④口口④ |----|
口口口口 |④---|
9
口④④口 |①-②-|
口⑤⑤口 |③---|
口⑥⑥口 |④--⑤|
口③②① |--⑥-|
10
①⑤口① |----|
②口口② |①②③④|
③口口③ |----|
④口口④ |--⑤-|
11
④口②② |①--②|
⑤①口口 |--③-|
口口③③ |--④-|
口口口口 |⑤---|
12
口⑤①① |----|
口口②② |①②③④|
口口③③ |----|
口口④④ |--⑤-|
13
④口②② |①--②|
⑤①口口 |--③-|
口口③③ |--④-|
口口口口 |⑤---|
14
口口口口 |----|
⑤口口口 |①②③④|
①②③④ |----|
①②③④ |--⑤-|
15
④⑤口口 |①--②|
口①口口 |--③-|
②口③口 |--④-|
②口③口 |⑤---|
16
口口口口 |----|
口口口⑤ |①②③④|
④③②① |----|
④③②① |--⑤-|
17
口口⑤④ |①--②|
口①口口 |--③-|
口③口② |--④-|
口③口② |⑤---|
18
①④口口 |①---|
口②口口 |②-③-|
口③口口 |----|
口口⑥⑤ |④-⑤⑥|
19
口口②④ |①--②|
口口③⑤ |--③-|
口口口⑥ |--④-|
口①口口 |⑤-⑥-|
20
①⑤⑤口 |①---|
口②口④ |②-③-|
口③口口 |--④-|
⑥⑦口口 |⑤-⑥⑦|
21
②口口口 |①--②|
③口口口 |--③-|
口④口口 |--④-|
口⑤①口 |⑤---|
22
①⑤口① |----|
②口口② |①②③④|
③口口③ |----|
④口口④ |--⑤-|
23
④口②② |①--②|
⑤①口口 |--③-|
口口③③ |--④-|
口口口口 |⑤---|
24
口⑤①① |----|
口口②② |①②③④|
口口③③ |----|
口口④④ |--⑤-|
25
④口②② |①--②|
⑤①口口 |--③-|
口口③③ |--④-|
口口口口 |⑤---|
26
口口口口 |----|
⑤口口口 |①②③④|
①②③④ |----|
①②③④ |--⑤-|
27
④⑤口口 |①--②|
口①口口 |--③-|
②口③口 |--④-|
②口③口 |⑤---|
28
口口口口 |----|
口口口⑤ |①②③④|
④③②① |----|
④③②① |--⑤-|
29
口口⑤④ |①--②|
口①口口 |--③-|
口③口② |--④-|
口③口② |⑤---|
30
口口口口 |①---②-|
⑤⑥口口 |--③---|
④③口口 |④---|
口口②① |--⑤⑥|
31
口口口口 |①---|
口口①口 |----|
口③口口 |--②-|
口②口口 |-③--|
32
口口口③ |①---|
①口②口 |--②-|
口口口口 |--③-|
口口口口 |----|
33
口口③口 |①---|
②口口口 |--②-|
口口口① |--③-|
口口口口 |----|
34
口口口口 |----|
口④口③ |--①②|
口口②口 |③---|
口口①口 |--④-|
35
①口口口 |①---|
②口③口 |--②-|
口口口口 |--③-|
口口口口 |----|
36
③②口口 |①---|
口①口口 |②-③-|
口口④口 |----|
口口口口 |④---|
37
口口口口 |①-②-|
口口口口 |----|
④③口口 |③---|
⑤口①② |④-⑤-|
38
口口口③ |----|
口口①② |①---|
口口口口 |②-③-|
口口口口 |----|
39
口口口口 |①---|
口口口口 |②-③-|
口①②③
③②①口

④⑤口④
④口⑥④
口⑦口口 |--④-|
口口口口 |-⑤⑥⑦|
40
⑤口④⑥ |①-②③|
口③口口 |-④⑤⑥|
口口②口
口口①口

口口口口
⑦口口⑧
⑨口口⑩ |⑦⑧⑨⑩|
⑪口⑬⑫ |⑪⑫⑬-|
41
口⑥⑤⑦ |①②③④|
⑧④③口 |⑤⑥⑦-|
⑫②①口 |⑧-⑨⑩|
⑪口⑩⑨ |-⑪-⑫|
42
口口⑧⑦ |①②-③|
⑤⑥④③ |④-⑤⑥|
⑩①②⑫ |-⑦⑧-|
⑨口口⑪ |⑨⑩⑪⑫|
43
⑤⑥⑧⑦ |①②③④|
⑨⑩⑫⑪ |--⑤⑥|
口②④口 |⑦⑧--|
口①③口 |⑨⑩⑪⑫|
44
⑤⑬⑧⑥ |①②③④|
⑮⑪⑭⑯ |⑤⑥⑦⑧|
①⑦⑫④ |⑨⑩⑪⑫|
③⑨②⑩ |⑬⑭⑮⑯|
45
口口③口 |①---|
口④口口 |②-③-|
①口⑤口 |--④-|
口口②口 |--⑤-|
46
口③口口 |--①-|
口口②口 |--②-|
口口口口 |--③-|
口①口口 |----|
47
口口③口 |①---|
②口⑤口 |②-③-|
口①①④ |--④-|
口口口口 |--⑤-|
48
口口③口 |----①-|
口②口口 |--②---|
①口口口 |③④--|
⑥⑤口④ |⑤-⑥-|
49
口口③口 |①---|
口④口口 |②-③-|
①口⑤口 |--④-|
口口②口 |--⑤-|
50
口③口口 |--①-|
口口②口 |--②-|
口口口口 |--③-|
口①口口 |----|
51
口口口口 |①---②-|
口口⑥③ |--③---|
口口⑤② |④---⑤-|
口口④① |--⑥---|
52
①④口口 |①---②-|
②⑤口口 |--③---|
③⑥口口 |④---⑤-|
口口口口 |--⑥---|
53
口口⑨口 |①②-③|
⑥⑦口口 |-④⑤-|
口口⑤④ |⑥⑦-⑧|
③⑧②① |⑨---|
54
②①口② |①---|
③口①③ |②③④⑤|
④①口④
⑤口①⑤

口⑥口口
口口口口
口口口口 |----|
口口口口 |--⑥-|
55
④口②② |①--②|
⑤①口口 |--③-|
口口③③ |--④-|
口口口口 |⑤---|
56
口⑤①① |----|
口口②② |①②③④|
口口③③ |----|
口口④④ |--⑤-|
57
④口②② |①--②|
⑤①口口 |--③-|
口口③③ |--④-|
口口口口 |⑤---|
58
口口口口 |----|
⑤口口口 |①②③④|
①②③④ |----|
①②③④ |--⑤-|
59
④⑤口口 |①--②|
口①口口 |--③-|
②口③口 |--④-|
②口③口 |⑤---|
60
口口口口 |----|
口口口⑤ |①②③④|
④③②① |----|
④③②① |--⑤-|
61
口口⑤④ |①--②|
口①口口 |--③-|
口③口② |--④-|
口③口② |⑤---|
62
①⑥⑤④ |①---②-|
②口口口 |--③---|
③口口口 |④---⑤-|
口口口口 |--⑥---|
63
口口口口 |①---②-|
口口口③ |--③---|
口口口② |④---⑤-|
④⑤⑥① |--⑥---|
64
①⑥⑤④ |①---②-|
②口口口 |--③---|
③口口口 |④---⑤-|
口口口口 |--⑥---|
65
口口口口 |①---②-|
口口口③ |--③---|
口口口② |④---⑤-|
④⑤⑥① |--⑥---|
66
④⑤⑥① |①-②-|
口口口② |③-④-|
口口口③ |⑤-⑥-|
口口口口 |----|
67
口口口口 |①-②-|
③口口口 |③-④-|
②口口口 |⑤-⑥-|
①⑥⑤④ |----|
68
①⑥⑤④ |①-②-|
②口口口 |③-④-|
③口口⑧ |⑤-⑥-|
口口口⑦ |⑦-⑧-|
69
⑤口口⑧ |①-②-|
⑥口口① |③-④-|
⑦口口口 |⑤-⑥-|
②③④口 |⑦-⑧-|
70
口②①口 |①-②-|
口口口⑤ |③-④-|
口口口④ |⑤-⑥-|
⑥⑦⑧③ |⑦-⑧-|
71
口口口口 |----|
口①①口 |①---|
口①①口 |----|
口口口口 |----|


不确定度: 0

最終更新:2012年11月11日 17:33