Happy Happy
ki☆ki

BASIC

Level: 2
BPM: 130
Notes: 173

1
口口口口 |----|
口口口口 |----|
口口口口 |----|
口口口口 |----|
2
口口口口 |①---|
①②口口 |----|
口口口口 |②---|
口口口口 |----|
3
口口口口 |①---|
口口①② |----|
口口口口 |②---|
口口口口 |----|
4
口口口口 |①---|
口口口口 |----|
口口②① |②---|
口口口口 |----|
5
口口口口 |①---|
口口口口 |----|
②①口口 |②---|
口口口口 |----|
6
①口口口 |①---|
②口口口 |②---|
③口口口 |③---|
④口口口 |④---|
7
口口口① |①---|
口口口② |②---|
口口口③ |③---|
口口口④ |④---|
8
口口①口 |①---|
口②口口 |②---|
口口③口 |③---|
口④口口 |④---|
9
口口口口 |①---|
②口口② |----|
①口口① |②---|
口口口口 |----|
10
口①口口 |----|
口②口口 |①---|
口③口口 |②---|
口口口口 |③---|
11
口口口口 |----|
口口①口 |①---|
口口②口 |②---|
口口③口 |③---|
12
口口口口 |----|
口口口③ |①---|
口口口② |②---|
口口口① |③---|
13
口口口口 |----|
口①①口 |----|
口②②口 |①---|
口口口口 |②---|
14
口口口口 |----|
口口口口 |①---|
①②③口 |②---|
口口口口 |③---|
15
口口口口 |----|
口①②③ |①---|
口口口口 |②---|
口口口口 |③---|
16
口③②① |----|
口口口口 |①---|
口口口口 |②---|
口口口口 |③---|
17
①口口口 |①---|
口②②口 |----|
口②②口 |②---|
口口口口 |----|
18
口口口口 |----|
③口口口 |①---|
②口口口 |②---|
口①口口 |③---|
19
①口口口 |①---|
口②口口 |----|
口口口口 |②---|
口口口口 |----|
20
口口口② |----|
口口①③ |①---|
口口口口 |②---|
口口口口 |③---|
21
口口口口 |①---|
口口口口 |②---|
口口口① |③---|
口③②口 |----|
22
口口口口 |----|
③口口③ |①---|
口②②口 |②---|
①口口① |③---|
23
口①①口 |①---|
口②②口 |----|
口口口口 |②---|
口口口口 |----|
24
口口口口 |----|
口③③口 |①---|
口②②口 |②---|
口①①口 |③---|
25
口①①口 |①---|
口口口口 |----|
口口口口 |----|
口口②口 |②---|
26
口口口口 |①---|
口口口口 |----|
②口口② |②---|
口①口口 |----|
27
口口口口 |①---|
②口③② |----|
口①①口 |②---|
口口口口 |③---|
28
②口口② |①---|
口①口口 |----|
口口口口 |②---|
口口口口 |----|
29
口口口口 |①---|
①口口① |----|
②口口② |②---|
口口③口 |③---|
30
口口口口 |①---|
口口口口 |----|
②口口② |②---|
口①口口 |----|
31
口口口口 |①---|
②口③② |----|
口①①口 |②---|
口口口口 |③---|
32
②口口② |①---|
口①口口 |----|
口口口口 |②---|
口口口口 |----|
33
口口口口 |①---|
口①①口 |----|
口②②口 |②---|
口口口口 |----|
34
口口口口 |----|
口口口口 |①---|
口②口① |----|
口口口口 |②---|
35
口口口口 |----|
口口口口 |①---|
②口①口 |----|
口口口口 |②---|
36
口口①口 |----|
口②口口 |①---|
口口③口 |②---|
口口口口 |③---|
37
口口口口 |①---|
口口④口 |②---|
口③口口 |③---|
口①②口 |④---|
38
口口口口 |----|
口②口① |①---|
口口口口 |----|
口口口口 |②---|
39
口口口口 |----|
②口①口 |①---|
口口口口 |----|
口口口口 |②---|
40
口口口口 |①---|
口①①口 |----|
②②②② |----|
口口口口 |②---|
41
口口口口 |①---|
①①①① |----|
口口口口 |----|
口口口口 |----|
42
口口④口 |①---|
口口③口 |②---|
口②口口 |③---|
口①口口 |④---|
43
口口口口 |①---|
①②口口 |----|
口口口口 |②---|
口口口口 |----|
44
口口口口 |①---|
口口①② |----|
口口口口 |②---|
口口口口 |----|
45
口口口口 |①---|
口口口口 |----|
口口②① |②---|
口口口口 |----|
46
口口口口 |①---|
口口口口 |----|
②①口口 |②---|
口口口口 |----|
47
①口口口 |①---|
②口口口 |②---|
③口口口 |③---|
④口口口 |④---|
48
口口口① |①---|
口口口② |②---|
口口口③ |③---|
口口口④ |④---|
49
口口①口 |①---|
口②口口 |②---|
口口③口 |③---|
口④口口 |④---|
50
口口口口 |①---|
口口口口 |----|
②口口② |②---|
①口口① |----|
51
②口口② |①---|
①口口① |----|
口口口口 |②---|
口口口口 |----|
52
口口口口 |①---|
口②②口 |----|
口①①口 |②---|
口口口口 |----|


不确定度: 0

最終更新:2012年11月11日 17:32