Happy Happy
ki☆ki

ADVANCED

Level: 5
BPM: 130
Notes: 348

1
口口口口 |----|
口口口口 |----|
口口口口 |----|
口口口口 |----|
2
①②口口 |①-②-|
③④口口 |③-④-|
口口⑤⑧ |⑤-⑥-|
口口⑦⑥ |⑦-⑧-|
3
口口②① |①-②-|
口口④③ |③-④-|
⑧⑤口口 |⑤-⑥-|
⑥⑦口口 |⑦-⑧-|
4
⑥⑦口口 |①-②-|
⑧⑤口口 |③-④-|
口口④③ |⑤-⑥-|
口口②① |⑦-⑧-|
5
口口⑦⑥ |①-②-|
口口⑤⑧ |③-④-|
③④口口 |⑤-⑥-|
①②口口 |⑦-⑧-|
6
口⑥⑦口 |①-②-|
口⑧⑤口 |③-④-|
③④④③ |⑤-⑥-|
①②②① |⑦-⑧-|
7
⑥口口⑦ |①-②-|
⑧口口⑤ |③-④-|
②④④② |⑤-⑥-|
①③③① |⑦-⑧-|
8
口⑦⑧口 |①-②-|
口⑥⑤口 |③-④-|
口③④口 |⑤-⑥-|
口②①口 |⑦-⑧-|
9
①口口① |①---|
口口口口 |----|
②口口② |②---|
口口口口 |----|
10
口口口口 |--①-|
口口⑥① |②-③-|
口口②⑤ |④-⑤-|
口口④③ |--⑥-|
11
口口口口 |--①-|
口③口口 |②-③-|
②口口口
口①口口

口口口口
④口口口
口⑤口口 |④-⑤-|
⑥⑦口口 |⑥-⑦-|
12
①⑥口口 |--①-|
⑤②口口 |②-③-|
③④口口 |④-⑤-|
口口口口 |--⑥-|
13
口口口② |----|
口口②① |----|
口口①口 |①---|
口口口口 |②---|
14
口口口口 |--①-|
①⑥口口 |②-③-|
⑤②口口 |④-⑤-|
③④口口 |--⑥-|
15
口口口口 |--①-|
口口③口 |②-③-|
口口口②
口口①口

口口口口
口口口④
口口⑤口 |④-⑤-|
口口⑦⑥ |⑥-⑦-|
16
口口③② |--①-|
口口①④ |②-③-|
口口⑤⑥ |④-⑤-|
口口口口 |--⑥-|
17
口⑤口口 |①-②-|
口⑤④口 |③--④----|
口口③口 |⑤---|
口⑤②① |----|
18
口口口② |----|
③口口① |①---|
①口口③ |②---|
②口口口 |③---|
19
①②口口 |①---|
口口口口 |--②-|
口口口口 |----|
口口②① |----|
20
④口口口 |----|
③⑤⑥口 |①-②-|
②口口口 |③-④-|
口①口口 |⑤-⑥-|
21
口口口① |①-②-|
口口口② |--③-|
口口口③ |----|
口口口口 |----|
22
③口口口 |----|
②口口③ |①---|
①口口② |②---|
口口口① |③---|
23
②口口① |①---|
口口口口 |--②-|
口口口口 |----|
①口口② |----|
24
④口口④ |----|
③⑤⑤③ |①-②-|
②口口② |--③-|
口①①口 |④-⑤-|
25
口口口口 |①---|
口口口口 |----|
口①①③ |--②-|
口④②口 |③-④-|
26
口口②口 |①---|
口口②口 |--②-|
①口②口 |----|
口口口口 |----|
27
口①①口 |①---|
③②口③ |--②-|
④②口④ |--③-|
⑤②口⑤ |④-⑤-|
28
口口②口 |①---|
口口②口 |--②-|
口口②口
口①①口

口③口口
口口口口
口口口口 |----|
口口④口 |③-④-|
29
口口②③ |①---|
口口口口 |②-③-|
口口口口
口①口口

口④⑥口
⑤口口口
口口口口 |--④-|
口口口口 |⑤-⑥-|
30
口口口口 |①---|
口②口① |--②-|
口②口口 |----|
口②口口 |----|
31
⑤口②⑤ |①---|
④口②④ |--②-|
③口②③ |--③-|
口①①口 |④-⑤-|
32
口①①口 |①---|
口②口口 |-----②--|
口②口口
口②口口

口④口口
口口口口
口口口口 |----|
口口③口 |③-④-|
33
口口①口 |①---|
口口口口 |②-③-|
口口口口 |----|
③②口口 |----|
34
口口口口 |----|
口口口① |①---|
口②口① |--②-|
口口口口 |----|
35
口口口口 |①---|
①口②口 |--②-|
①口口口 |----|
口口口口 |----|
36
口口口口 |----|
口④③口 |①---|
口②①口 |②--③|
口口口口 |--④-|
37
②口口② |①---|
②③③② |②---|
①④④① |③---|
口①①口 |④---|
38
口口口口 |----|
口②口① |①---|
口口口① |--②-|
口口口口 |----|
39
口口口口 |①---|
①口口口 |--②-|
①口②口 |----|
口口口口 |----|
40
④①①④ |①---|
④口口④ |----|
②③③② |--②-|
②③③② |③-④-|
41
口①①口 |①---|
口①①口 |----|
口口口口 |----|
口口口口 |----|
42
②口③① |①---|
口④口口 |②---|
口③口口 |③---|
①口④② |④---|
43
①②口口 |①-②-|
③④口口 |③-④-|
口口⑤⑧ |⑤-⑥-|
口口⑦⑥ |⑦-⑧-|
44
口口②① |①-②-|
口口④③ |③-④-|
⑧⑤口口 |⑤-⑥-|
⑥⑦口口 |⑦-⑧-|
45
⑥⑦口口 |①-②-|
⑧⑤口口 |③-④-|
口口④③ |⑤-⑥-|
口口②① |⑦-⑧-|
46
口口⑦⑥ |①-②-|
口口⑤⑧ |③-④-|
③④口口 |⑤-⑥-|
①②口口 |⑦-⑧-|
47
口⑥⑦口 |①-②-|
口⑧⑤口 |③-④-|
③④④③ |⑤-⑥-|
①②②① |⑦-⑧-|
48
⑥口口⑦ |①-②-|
⑧口口⑤ |③-④-|
②④④② |⑤-⑥-|
①③③① |⑦-⑧-|
49
口⑦⑧口 |①-②-|
口⑥⑤口 |③-④-|
口③④口 |⑤-⑥-|
口②①口 |⑦-⑧-|
50
①口口① |①---|
口口口口 |----|
②口口② |②---|
口口口口 |----|
51
口口口口 |①---|
①口口① |----|
口口口口 |②---|
②口口② |----|
52
②②②② |①---|
口口口口 |----|
①①①① |②---|
口口口口 |----|


不确定度: 0

最終更新:2012年11月11日 17:31