Happy Happy
ki☆ki

EXTREME

Level: 8
BPM: 130
Notes: 531

1
口口口口 |----|
口口口口 |----|
口口口口 |----|
口口口口 |----|
2
①②④③ |①②③④|
⑤⑥⑧⑦ |⑤⑥⑦⑧|
⑨⑨⑪⑪ |⑨-⑩-|
⑩⑩⑫⑫ |⑪-⑫-|
3
③④②① |①②③④|
⑦⑧⑥⑤ |⑤⑥⑦⑧|
⑪⑪⑨⑨ |⑨-⑩-|
⑫⑫⑩⑩ |⑪-⑫-|
4
①②④③ |①②③④|
⑤⑥⑧⑦ |⑤⑥⑦⑧|
⑨⑨⑪⑪ |⑨-⑩-|
⑩⑩⑫⑫ |⑪-⑫-|
5
①②④③ |①②③④|
⑤⑥⑧⑦ |⑤⑥⑦⑧|
⑨⑩⑫⑪ |⑨⑩⑪⑫|
⑬⑭⑯⑮ |⑬⑭⑮⑯|
6
①②④③ |①②③④|
⑤⑥⑧⑦ |⑤⑥⑦⑧|
⑨⑨⑪⑪ |⑨-⑩-|
⑩⑩⑫⑫ |⑪-⑫-|
7
③④②① |①②③④|
⑦⑧⑥⑤ |⑤⑥⑦⑧|
⑪⑪⑨⑨ |⑨-⑩-|
⑫⑫⑩⑩ |⑪-⑫-|
8
①②④③ |①②③④|
⑤⑥⑧⑦ |⑤⑥⑦⑧|
⑨⑩⑫⑪ |⑨⑩⑪⑫|
⑬⑭⑯⑮ |⑬⑭⑮⑯|
9
①②④③ |①②③④|
⑦⑦⑤口 |-⑤⑥-|
口⑥⑧⑧ |⑦--⑧|
口口口口 |----|
10
口口口口 |--①-|
口③⑤① |②-③-|
口口口口 |④-⑤-|
口⑥②④ |--⑥-|
11
④④④④ |--①-|
③⑤⑤⑤ |②-③-|
②口⑥⑥ |④-⑤-|
①口口⑦ |⑥-⑦-|
12
①⑤③口 |--①-|
口口口口 |②-③-|
④②⑥口 |④-⑤-|
口口口口 |--⑥-|
13
口口口口 |----|
口口口口 |----|
①口口② |①---|
①①②② |②---|
14
口③⑤① |--①-|
口口口口 |②-③-|
口⑥②④ |④-⑤-|
口口口口 |--⑥-|
15
⑦口口① |--①-|
⑥⑥口② |②-③-|
⑤⑤⑤③ |④-⑤-|
④④④④ |⑥-⑦-|
16
口①②③ |--①-|
口口④⑤ |②-③-|
口口口⑥ |④-⑤-|
口口口口 |--⑥-|
17
⑤⑤口口 |①-②-|
④③⑤口 |③--④----|
口⑤②口 |⑤---|
口⑤①口 |----|
18
③口口① |----|
③②口① |①---|
②③①口 |②---|
②口口口 |③---|
19
口口②② |①---|
口口①口 |--②-|
口口口① |----|
②②口① |----|
20
③口口④ |----|
⑤③④② |①-②-|
①⑤②⑥ |③-④-|
口①⑥口 |⑤-⑥-|
21
③口口口 |①-②-|
口③口② |--③-|
①口②口 |----|
口①口口 |----|
22
②口口口 |----|
口②③口 |①---|
口③②口 |②---|
③①①① |③---|
23
②①①① |①---|
②口口② |--②-|
②口口② |----|
口口口② |----|
24
④口口④ |----|
③⑤⑤③ |①-②-|
②口口② |--③-|
口①①口 |④-⑤-|
25
口口口口 |①---|
口口口口 |----|
口①①口
口口口口

口口口口
③④口口
口②④③ |--②-|
口口②口 |③-④-|
26
①口口② |①---|
②口口① |--②-|
口口口口 |----|
口口口口 |----|
27
④口口④ |①---|
②⑤⑤① |--②-|
②③③① |--③-|
①口口② |④-⑤-|
28
②②②② |①---|
口口口③ |--②-|
口④口口 |----|
①口口① |③-④-|
29
口口口口 |①---|
口②口口 |②-③-|
③口口①
口口口口

口④口口
⑤⑥④口
口口⑥⑤ |--④-|
口口口口 |⑤-⑥-|
30
口口口口 |①---|
口口口口 |--②-|
①口口② |----|
②口口① |----|
31
②口口① |①---|
①③③② |--②-|
①⑤⑤② |--③-|
④口口④ |④-⑤-|
32
①口口① |①---|
口口④口 |-----②--|
③口口口 |----|
②②②② |③-④-|
33
口口口口 |①---|
①口口③ |②-③-|
口口②口 |----|
口口口口 |----|
34
口①口口 |----|
口口口② |①---|
口口口① |②---|
口口②口 |----|
35
口口①口 |①---|
②口口口 |--②-|
①口口口 |----|
口②口口 |----|
36
②口口① |----|
口口口口 |①---|
口④③口 |②---|
②口口① |③-④-|
37
口①口口 |①---|
口口②① |②---|
②③④口 |③---|
④口口③ |④---|
38
①①②② |----|
②口口① |①---|
口口口口 |--②-|
口口口口 |----|
39
口口口口 |①---|
口口口口 |--②-|
①口口② |----|
②②①① |----|
40
口口口口 |①---|
口①①口 |----|
口①①口
口口口口

口口④④
口④口口
③③②② |--②-|
口②③口 |③-④-|
41
①①口口 |①---|
口口①口 |----|
口口口口 |----|
口口口口 |----|
42
口口②口 |①---|
口①口口 |②---|
②③口④ |③---|
④口③① |④---|
43
①②④③ |①②③④|
⑤⑥⑧⑦ |⑤⑥⑦⑧|
⑨⑨⑪⑪ |⑨-⑩-|
⑩⑩⑫⑫ |⑪-⑫-|
44
③④②① |①②③④|
⑦⑧⑥⑤ |⑤⑥⑦⑧|
⑪⑪⑨⑨ |⑨-⑩-|
⑫⑫⑩⑩ |⑪-⑫-|
45
①②④③ |①②③④|
⑤⑥⑧⑦ |⑤⑥⑦⑧|
⑨⑨⑪⑪ |⑨-⑩-|
⑩⑩⑫⑫ |⑪-⑫-|
46
①②④③ |①②③④|
⑤⑥⑧⑦ |⑤⑥⑦⑧|
⑨⑩⑫⑪ |⑨⑩⑪⑫|
⑬⑭⑯⑮ |⑬⑭⑮⑯|
47
①②④③ |①②③④|
⑤⑥⑧⑦ |⑤⑥⑦⑧|
⑨⑨⑪⑪ |⑨-⑩-|
⑩⑩⑫⑫ |⑪-⑫-|
48
③④②① |①②③④|
⑦⑧⑥⑤ |⑤⑥⑦⑧|
⑪⑪⑨⑨ |⑨-⑩-|
⑫⑫⑩⑩ |⑪-⑫-|
49
①②④③ |①②③④|
⑤⑥⑧⑦ |⑤⑥⑦⑧|
⑨⑩⑫⑪ |⑨⑩⑪⑫|
⑬⑭⑯⑮ |⑬⑭⑮⑯|
50
①②④③ |①②③④|
⑤⑥⑧⑦ |⑤⑥⑦⑧|
⑨⑨⑨⑨ |⑨--⑩|
⑩⑩⑩⑩ |----|
51
①②④③ |①②③④|
⑤⑥⑧⑦ |⑤⑥⑦⑧|
⑨⑨⑨⑨ |⑨--⑩|
⑩⑩⑩⑩ |----|
52
①②口口 |①②③-|
③③③③ |--④⑤|
⑥⑥⑥⑥ |⑥---|
口口⑤④ |----|


不确定度: 0

最終更新:2012年11月11日 17:30