GIGA BREAK
96

BASIC

Level: 6
BPM: 135
Notes: 335

1
口口口口 |----|
口口口口 |----|
口口口口 |----|
口口口口 |----|
2
口口口口 |①---|
口①①口 |----|
口①①口 |----|
口口口口
3
口口口口 |----|
口口口口 |----|
口口口口 |----|
口口口口
4
①②口口 |①②③④|
口口③④ |-⑤-⑥|
口⑤口⑥ |----|
口口口口
5
口口口口 |----|
口口口口 |----|
口口口口 |----|
口口口口
6
口口口口 |①---|
口①①口 |----|
口①①口 |----|
口口口口
7
口口口口 |----|
口口口口 |----|
口口口口 |----|
口口口口
8
①②口口 |①②③④|
口口③④ |-⑤-⑥|
口⑤口⑥ |----|
口口口口
9
口②②口 |----|
口口口口 |①---|
口口口口 |②---|
口①①口
10
①口口口 |①---|
②①口口 |②---|
③②口口 |③---|
口③口口
11
口口口① |①---|
口口①② |②---|
口口②③ |③---|
口口③口
12
口③口口 |①---|
③②口口 |②---|
②①口口 |③---|
①口口口
13
口口③口 |①---|
口口②③ |②---|
口口①② |③---|
口口口①
14
①口口口 |①---|
②①口口 |②---|
③②口口 |③---|
口③口口
15
口口口① |①---|
口口①② |②---|
口口②③ |③---|
口口③口
16
口③口口 |①---|
③②口口 |②---|
②①口口 |③---|
①口口口
17
口口③口 |①---|
口口②③ |②---|
口口①② |③---|
口口口①
18
口口口口 |①---|
口②②口 |--②-|
③①①③ |----|
口口口口 |--③-|
19
口①②口 |----|
口口口口 |--①-|
口口口口 |②---|
口口口口
20
口口口口 |①---|
口口口口 |--②-|
②③③② |----|
口①①口 |--③-|
21
口②①口 |----|
口口口口 |--①-|
口口口口 |②---|
口口口口
22
口口口口 |①---|
口②②口 |--②-|
③①①③ |----|
口口口口 |--③-|
23
口①②口 |----|
口口口口 |--①-|
口口口口 |②---|
口口口口
24
口口口口 |①---|
口口口口 |--②-|
②③③② |----|
口①①口 |--③-|
25
口②①口 |----|
口口口口 |--①-|
口口口口 |②---|
口口口口
26
③④口口 |①---|
口①①口 |②---|
口②②口 |③--④|
口口口口 |--|
27
口口①口 |①---|
口口口口 |----|
口口口口 |②--③|
口口③② |--|
28
口口口口 |①---|
②③口口 |----|
口口口口 |②--③|
口①口口 |--|
29
口口口口 |①---|
口口①口 |----|
口②②口 |②---|
口口口口 |--|
30
①口口口 |①--②|
②③④口 |-③-④|
口口⑥⑤ |--⑤-|
口口口口 |⑥-|
31
口口口口 |①--②|
口口口口 |-③-④|
口①口口 |----|
②③④口 |-|
32
①口口口 |①--②|
②③④口 |-③-④|
口口⑥⑤ |--⑤-|
口口口口 |⑥-|
33
口口口口 |①--②|
口口口口 |-③-④|
口①口口 |----|
②③④口 |-|
34
①口口口 |①--②|
②③④口 |-③-④|
口口⑥⑤ |--⑤-|
口口口口 |⑥-|
35
口口口口 |①--②|
口口口口 |-③-④|
口①口口 |----|
②③④口 |-|
36
①口口口 |①--②|
②③④口 |-③-④|
口口⑥⑤ |--⑤-|
口口口口 |⑥-|
37
口口口口 |①---|
口口口口 |----|
口①口口 |----|
口口口口 |-|
38
①④⑤口 |①-②-|
②口⑥口 |③-④⑤|
③口⑦口 |-⑥-⑦|
口口口口
39
口④⑤口 |①-②-|
②口口口 |③-④⑤|
③口口①
口口口口

口口口口
口口⑥口
口口⑦⑧ |-⑥-⑦|
口口⑨口 |⑧⑨|
40
口④⑤口 |①-②-|
②口⑥口 |③-④⑤|
③口口⑦ |-⑥-⑦|
口口口①
41
口③④口 |--①-|
①口⑤口 |②-③④|
②口⑥⑦ |-⑤-⑥|
⑧⑨⑩口 |⑦⑧⑨⑩|
42
口④⑤口 |①-②-|
②口⑥口 |③-④⑤|
③口⑦口 |-⑥-⑦|
口口口①
43
口④⑤口 |①-②-|
②口口口 |③-④⑤|
③口口①
口口口口

口口口口
口口⑥口
口口⑦⑧ |-⑥-⑦|
口口⑨口 |⑧⑨|
44
口④⑤口 |①-②-|
②口⑥口 |③-④⑤|
③口口⑦ |-⑥-⑦|
口口口①
45
口③④口 |--①-|
①口⑤口 |②-③④|
②口⑥口 |-⑤-⑥|
口口口口
46
口口口口 |①--②|
③③口口 |--③-|
②②口口 |--|
①①口口
47
口口口口 |----|
口口口口 |--①-|
口口①① |----|
口口口口
48
口口口口 |----|
口口口口 |----|
口口口口 |----|
口口口口
49
口口口口 |①---|
①①口口 |----|
口口口口 |----|
口口口口
50
口口①① |①---|
口口口口 |----|
口口口口 |----|
口口口口
51
①口口口 |①---|
口②③口 |②--③|
口口口④ |----|
口口口口 |④---|
52
口口口口 |①---|
口口口口 |②--③|
①口口④ |----|
口②③口 |④---|
53
口口口① |①---|
口③②口 |②--③|
④口口口 |----|
口口口口 |④---|
54
①口⑤④ |①---|
口②③口 |②--③|
口口口口 |----|
口口口口 |④-⑤-|
55
②①口口 |①-②-|
③口口口 |③-④-|
④口口口 |⑤-⑥-|
⑤⑥⑦⑧ |⑦-⑧-|
56
⑥⑤④③ |①-②-|
⑦口口② |③-④-|
⑧口口① |⑤-⑥-|
口口口口 |⑦-⑧-|
57
②口口② |-①--|
②①①② |----|
口①①口 |②---|
口口口口 |--|
58
口口口口 |-①--|
口④④口 |---②|
①③③① |-③-④|
①②②① |-|
59
①口口① |-①--|
①口口① |----|
②口口② |②---|
②口口② |--|
60
口口口口 |-①--|
④①①④ |---②|
③①①③ |-③-④|
②口口② |-|
61
口口口口 |-①--|
口①①口 |----|
②①①② |②---|
②口口② |--|
62
①④④① |-①--|
①③③① |---②|
口②②口 |-③-④|
口口口口 |-|
63
①口口① |-①--|
①口口① |----|
②口口② |②---|
②口口② |--|
64
口口口口 |-①--|
④①①④ |---②|
③①①③ |-③-④|
②口口② |-|


不確定度: 0

最終更新:2013年03月29日 19:52