GIGA BREAK
96

ADVANCED

Level: 7
BPM: 135
Notes: 449

1
口口口口 |----|
口口口口 |----|
口口口口 |----|
口口口口 |----|
2
口口口口 |①---|
口①①口 |----|
口①①口 |----|
口口口口
3
口口口口 |----|
口口口口 |----|
口口口口 |----|
口口口口
4
①②口口 |①②③④|
口口③④ |-⑤-⑥|
口⑤口⑥ |----|
口⑤口⑥
5
口口口口 |----|
口口口口 |----|
口口口口 |----|
口口口口
6
口口口口 |①---|
口①①口 |----|
口①①口 |----|
口口口口
7
口口口口 |----|
口口口口 |----|
口口口口 |----|
口口口口
8
①②口口 |①②③④|
口口③④ |-⑤-⑥|
口⑤口⑥ |----|
口⑤口⑥
9
口口口口 |----|
口口①① |①---|
②②口口 |②---|
口口口口
10
①口口① |①---|
口②②口 |②---|
口③③口 |③---|
口口口口
11
口①①口 |①---|
口②②口 |②---|
口③③口 |③---|
口口口口
12
②口口② |①---|
口③③口 |②---|
口口口口 |③---|
①口口①
13
口②②口 |①---|
③口口③ |②---|
④①①④ |③-④-|
口口口口
14
①口口① |①-②-|
口②②口 |-③--|
⑤③③⑤ |④-⑤-|
④口口④
15
口①①口 |--①-|
②口口② |-②--|
④口口④ |③-④-|
③口口③
16
口口口口 |--①-|
口①①口 |-②--|
④②②④ |③-④-|
③口口③
17
口①①口 |--①-|
②口口② |-②--|
④口口④ |③-④-|
③口口③
18
②口口② |①---|
②①①② |--②-|
③①①③ |----|
③口口③ |--③-|
19
口口口口 |----|
口②②口 |--①-|
口①①口 |②---|
口口口口
20
口口口口 |①---|
口口口口 |--②-|
①口口② |----|
①③③② |--③-|
21
口③③口 |----|
②口口② |①-②-|
①口口① |③---|
口口口口
22
②口口② |①---|
②①①② |--②-|
③①①③ |----|
③口口③ |--③-|
23
口口口口 |----|
口②②口 |--①-|
口①①口 |②---|
口口口口
24
口口口口 |①---|
口口口口 |--②-|
①口口② |----|
①③③② |--③-|
25
口③③口 |----|
口②②口 |①-②-|
口①①口 |③---|
口口口口
26
③口口③ |①---|
④口口④ |②---|
口②②口 |③--④|
口①①口 |--|
27
口口口口 |①---|
口④④口 |②---|
①③③① |③--④|
②口口② |--|
28
③②②③ |①---|
④口口④ |②---|
口口口口 |③--④|
口①①口 |--|
29
口口口口 |①---|
口口口口 |②---|
①③③① |③---|
②口口② |--|
30
①②③④ |①--②|
①口⑥⑤ |-③-④|
口口口口 |--⑤-|
口口口口 |⑥-|
31
口口口口 |①--②|
口①口口 |-③-④|
口②③④ |-⑤-⑥|
口口⑥⑤ |-|
32
①②③④ |①--②|
①口⑥⑤ |-③-④|
口口口口 |--⑤-|
口①口口 |⑥-|
33
口口口口 |①--②|
口①口口 |-③-④|
口②③④ |-⑤-⑥|
口口⑥⑤ |-|
34
①②③④ |①--②|
①口⑥⑤ |-③-④|
口口口口 |--⑤-|
口①口口 |⑥-|
35
口口口口 |①--②|
口①口口 |-③-④|
口②③④ |-⑤-⑥|
口口⑥⑤ |-|
36
①②③④ |①--②|
①口⑥⑤ |-③-④|
口口口口 |--⑤-|
口①口口 |⑥-|
37
口口口口 |①--②|
口①口口 |-③-④|
口②③④ |-⑤-⑥|
口口⑥⑤ |-|
38
①④⑤口 |①-②-|
②口⑥口 |③-④⑤|
③口⑦口 |-⑥-⑦|
口①口口
39
口④⑤口 |①-②-|
②口口口 |③-④⑤|
③口口①
口口口口

口口口口
口口⑥口
口口⑦⑧ |-⑥-⑦|
口口⑨口 |⑧⑨|
40
口④⑤口 |①-②-|
②口⑥口 |③-④⑤|
③口口⑦ |-⑥-⑦|
口口口①
41
口③④口 |--①-|
①口⑤口 |②-③④|
②口⑥⑦ |-⑤-⑥|
⑧⑨⑩口 |⑦⑧⑨⑩|
42
口④⑤口 |①-②-|
②口⑥口 |③-④⑤|
③口⑦口 |-⑥-⑦|
口口口①
43
口④⑤口 |①-②-|
②口口口 |③-④⑤|
③口口①
口口口口

口口口口
口口⑥口
口口⑦⑧ |-⑥-⑦|
口口⑨口 |⑧⑨|
44
口④⑤口 |①-②-|
②口⑥口 |③-④⑤|
③口口⑦ |-⑥-⑦|
口口口①
45
口③④口 |--①-|
①口⑤口 |②-③④|
②口⑥口 |-⑤-⑥|
口口口口
46
口口口口 |①--②|
③③口口 |--③-|
②②口口 |--|
①①口口
47
口口口口 |----|
口口口口 |--①-|
口口①① |----|
口口口口
48
口口口口 |----|
口口口口 |----|
口口口口 |----|
口口口口
49
口口口口 |①---|
①①口口 |----|
口口口口 |----|
口口口口
50
口口①① |①---|
口口口口 |----|
口口口口 |----|
口口口口
51
口口口口 |①---|
①③②④ |②--③|
③①④② |----|
口口口口 |④---|
52
口口口口 |①---|
①③②④ |②--③|
③①④② |----|
口口口口 |④---|
53
口口口口 |①---|
①③②④ |②--③|
③①④② |----|
口口口口 |④---|
54
口口口口 |①---|
①③②④ |②--③|
③①④② |----|
⑤口口口 |④-⑤-|
55
口⑧⑦⑥ |①-②-|
口口口⑤ |③-④-|
口口口④ |⑤-⑥-|
口①②③ |⑦-⑧-|
56
①口口口 |①-②-|
②口口口 |③-④-|
③口口⑧ |⑤-⑥-|
④⑤⑥⑦ |⑦-⑧-|
57
口③③口 |-①-②|
⑥②②⑥ |-③--|
⑤①①⑤ |④-⑤-|
④口口④ |⑥-|
58
④③③④ |-①-②|
⑤②②⑤ |-③-④|
⑥①①⑥ |-⑤-⑥|
口口口口 |-|
59
口③③口 |-①-②|
⑥②②⑥ |-③--|
⑤①①⑤ |④-⑤-|
④口口④ |⑥-|
60
④③③④ |-①-②|
⑤②②⑤ |-③-④|
⑥①①⑥ |-⑤-⑥|
口口口口 |-|
61
口③③口 |-①-②|
⑥②②⑥ |-③--|
⑤①①⑤ |④-⑤-|
④口口④ |⑥-|
62
④③③④ |-①-②|
⑤②②⑤ |-③-④|
⑥①①⑥ |-⑤-⑥|
口口口口 |-|
63
口③③口 |-①-②|
⑥②②⑥ |-③--|
⑤①①⑤ |④-⑤-|
④口口④ |⑥-|
64
④口口⑤ |-①-②|
⑥③③⑦ |-③-④|
⑧②②⑨ |⑤⑥⑦⑧|
口①①口 |⑨|


不確定度: 0

最終更新:2013年03月29日 19:53