GIGA BREAK
96

EXTREME

Level: 10
BPM: 135
Notes: 716

1
口口口口 |----|
口口口口 |----|
口口口口 |----|
口口口口 |----|
2
口口口口 |①---|
口①①口 |----|
口①①口 |----|
口口口口
3
口口口口 |----|
口口口口 |----|
口口口口 |----|
口口口口
4
①②口口 |①②③④|
口口③④ |-⑤-⑥|
口⑤口⑥ |----|
口⑤口⑥
5
口口口口 |----|
口口口口 |----|
口口口口 |----|
口口口口
6
口口口口 |①---|
口①①口 |----|
口①①口 |----|
口口口口
7
口口口口 |----|
口口口口 |----|
口口口口 |----|
口口口口
8
①②口口 |①②③④|
口口③④ |-⑤-⑥|
口⑤口⑥ |----|
口⑤口⑥
9
口口口口 |----|
口口①① |①---|
②②口口 |②---|
口口口口
10
①②⑨⑧ |①-②-|
⑦⑦④⑥ |③④⑤⑥|
口口③⑤ |⑦-⑧⑨|
口口口口
11
①②口口 |-①②③|
口口口口 |④⑤⑥⑦|
⑤⑦③口 |⑧-⑨-|
④⑥⑧⑨
12
①③②口 |①-②③|
⑦口④⑧ |-④⑤⑥|
口口⑥⑤ |-⑦-⑧|
口口口口
13
口③②① |-①②③|
口口口口 |-④⑤⑥|
⑤⑦口口 |⑦⑧⑨-|
④⑥⑧⑨
14
①②⑨⑧ |①-②-|
⑦⑦④⑥ |③④⑤⑥|
口口③⑤ |⑦-⑧⑨|
口口口口
15
①②口口 |-①②③|
口口口口 |④⑤⑥⑦|
⑤⑦③口 |⑧-⑨-|
④⑥⑧⑨
16
①③②口 |①-②③|
⑦口④⑧ |-④⑤⑥|
口口⑥⑤ |-⑦-⑧|
口口口口
17
③口②① |-①②③|
口口口口 |-④⑤⑥|
⑤⑦口口 |⑦⑧⑨-|
④⑥⑧⑨
18
④①④① |①-②-|
①④①④ |③-④-|
口口②③
口口口口

口⑦口⑦
⑦口⑦口
⑥⑤口口 |--⑤-|
口口口口 |⑥-⑦-|
19
①口①口 |----|
口①口① |--①-|
②口②口 |②---|
口②口②
20
④①④① |①-②-|
①④①④ |③-④-|
口③口②
③口②口

口⑦口⑦
⑦口⑦口
口口⑤口 |--⑤-|
口⑥口口 |⑥-⑦-|
21
①口①口 |----|
口①口① |--①-|
②口②口 |②---|
口②口②
22
③①③① |①---|
①③①③ |②-③-|
口口口②
②口口口

口⑥口⑥
⑥口⑥口
⑤④口口 |--④-|
口口口口 |⑤-⑥-|
23
①口①口 |----|
口①口① |--①-|
②口②口 |②---|
口②口②
24
④①④① |①-②-|
①④①④ |③-④-|
口③口②
③口②口

口⑦口⑦
⑦口⑦口
口口⑤口 |--⑤-|
口⑥口口 |⑥-⑦-|
25
①口①口 |----|
口①口① |--①-|
口②口② |②---|
②口②口
26
口口口① |①---|
①口口口 |②---|
②④④口 |③--④|
口③③② |--|
27
口口口口 |①---|
口①①② |②---|
口④④② |③--④|
口③③口 |--|
28
①①①① |①---|
②④④口 |②---|
②③③口 |③--④|
口口口口 |--|
29
口①①口 |①---|
口口口口 |②---|
口③③口 |③---|
②口口② |--|
30
①⑩⑬④ |①②③④|
⑭⑤②⑭ |⑤⑥⑦⑧|
⑦⑫⑨⑦ |⑨⑩⑪⑫|
⑧③⑥⑪ |⑬⑭|
31
①⑩⑩④ |①②③④|
口⑤②口 |⑤⑥⑦⑧|
⑦⑨⑨⑦ |-⑨-⑩|
⑧③⑥⑧ |-|
32
①⑩⑬④ |①②③④|
⑭⑤②⑭ |⑤⑥⑦⑧|
⑦⑫⑨⑦ |⑨⑩⑪⑫|
⑧③⑥⑪ |⑬⑭|
33
①⑩⑩④ |①②③④|
口⑤②口 |⑤⑥⑦⑧|
⑦⑨⑨⑦ |-⑨-⑩|
⑧③⑥⑧ |-|
34
①⑩⑬④ |①②③④|
⑭⑤②⑭ |⑤⑥⑦⑧|
⑦⑫⑨⑦ |⑨⑩⑪⑫|
⑧③⑥⑪ |⑬⑭|
35
①⑩⑩④ |①②③④|
口⑤②口 |⑤⑥⑦⑧|
⑦⑨⑨⑦ |-⑨-⑩|
⑧③⑥⑧ |-|
36
①⑩⑬④ |①②③④|
⑭⑤②⑭ |⑤⑥⑦⑧|
⑦⑫⑨⑦ |⑨⑩⑪⑫|
⑧③⑥⑪ |⑬⑭|
37
①⑩⑩④ |①②③④|
口⑤②口 |⑤⑥⑦⑧|
⑦⑨⑨⑦ |-⑨-⑩|
⑧③⑥⑧ |-|
38
口⑦⑦口 |①-②-|
①②②① |③-④⑤|
④⑤⑤④ |-⑥-⑦|
⑥③③⑥
39
⑧⑦⑦⑧ |①-②-|
①②②① |③-④⑤|
④⑤⑤④ |-⑥-⑦|
⑥③③⑥ |⑧-|
40
口⑦⑦口 |①-②-|
①②②① |③-④⑤|
④⑤⑤④ |-⑥-⑦|
⑥③③⑥
41
⑧⑦⑦⑧ |①-②-|
①②②① |③-④⑤|
④⑤⑤④ |-⑥-⑦|
⑥③③⑥ |⑧---|
42
口⑦⑦口 |①-②-|
①②②① |③-④⑤|
④⑤⑤④ |-⑥-⑦|
⑥③③⑥
43
⑧⑦⑦⑧ |①-②-|
①②②① |③-④⑤|
④⑤⑤④ |-⑥-⑦|
⑥③③⑥ |⑧-|
44
口⑦⑦口 |①-②-|
①②②① |③-④⑤|
④⑤⑤④ |-⑥-⑦|
⑥③③⑥
45
口⑦⑦口 |①-②-|
①②②① |③-④⑤|
④⑤⑤④ |-⑥-⑦|
⑥③③⑥
46
①口口① |①--②|
②口口② |--③-|
③口口③ |--|
口口口口
47
口⑥⑥口 |①-②-|
④③③⑤ |③-④⑤|
口②②口 |-⑥--|
①①①①
48
口⑥⑥口 |①-②-|
④③③⑤ |③-④⑤|
口②②口 |-⑥--|
①①①①
49
口⑥⑥口 |①-②-|
④③③⑤ |③-④⑤|
口②②口 |-⑥--|
①①①①
50
口⑥⑥口 |①-②-|
④③③⑤ |③-④⑤|
口②②口 |-⑥--|
①①①①
51
口口口口 |①②③④|
口口口⑧ |⑤⑥⑦⑧|
口⑦⑥⑤
④③②①

口⑫⑪⑩
口口⑨口
口口口口 |⑨⑩⑪⑫|
⑯⑮⑭⑬ |⑬⑭⑮⑯|
52
口口口⑧ |①②③④|
口⑦⑥⑤ |⑤⑥⑦⑧|
④③②①
口口口口

口口⑨口
口口口口
⑯⑮⑭⑬ |⑨⑩⑪⑫|
口⑫⑪⑩ |⑬⑭⑮⑯|
53
口⑦⑥⑤ |①②③④|
④③②① |⑤⑥⑦⑧|
口口口口
口口口⑧

口口口口
⑯⑮⑭⑬
口⑫⑪⑩ |⑨⑩⑪⑫|
口口⑨口 |⑬⑭⑮⑯|
54
④③②① |①②③④|
口口口口 |⑤⑥⑦⑧|
口口口⑧
口⑦⑥⑤

⑯⑮⑭⑬
口⑫⑪⑩
口口⑨口 |⑨⑩⑪⑫|
口口口口 |⑬⑭⑮⑯|
55
⑯⑮⑭⑬ |①②③④|
⑫⑪⑩⑨ |⑤⑥⑦⑧|
⑧⑦⑥⑤ |⑨⑩⑪⑫|
④③②① |⑬⑭⑮⑯|
56
⑬⑭⑮⑯ |①②③④|
⑨⑩⑪⑫ |⑤⑥⑦⑧|
⑤⑥⑦⑧ |⑨⑩⑪⑫|
①②③④ |⑬⑭⑮⑯|
57
口口口口 |-①-②|
⑥③③⑥ |-③--|
⑤②②⑤ |④-⑤-|
①④④① |⑥-|
58
⑧口口⑨ |-①-②|
⑥③③⑦ |-③-④|
④②②⑤ |⑤⑥⑦⑧|
①口口① |⑨|
59
口口口口 |-①-②|
⑥③③⑥ |-③--|
⑤②②⑤ |④-⑤-|
①④④① |⑥-|
60
⑧口口⑨ |-①-②|
⑥③③⑦ |-③-④|
④②②⑤ |⑤⑥⑦⑧|
①口口① |⑨|
61
口口口口 |-①-②|
⑥③③⑥ |-③--|
⑤②②⑤ |④-⑤-|
①④④① |⑥-|
62
④口口⑤ |-①-②|
⑥③③⑦ |-③-④|
⑧②②⑨ |⑤⑥⑦⑧|
①口口① |⑨|
63
口口口口 |-①-②|
⑥③③⑥ |-③--|
⑤②②⑤ |④-⑤-|
④①①④ |⑥-|
64
④口口⑤ |-①-②|
⑥③③⑦ |-③-④|
⑧②②⑨ |⑤⑥⑦⑧|
口①①口 |⑨|


不確定度: 0

最終更新:2013年03月29日 19:53