Fantasia
TЁЯRA

BASIC

Level: 4
BPM: 165
Notes: 301

1
口口口口 |----|
口口口口 |----|
口口口口 |----|
口口口口 |----|
2
口①①口 |①---|
口口口口 |----|
口口口口 |----|
口口口口 |----|
3
口口口口 |①---|
口①①口 |----|
口口口口 |----|
口口口口 |----|
4
口口口口 |①---|
口口口口 |----|
口①口口 |----|
口口①口 |----|
5
口口口口 |①---|
口口口口 |----|
口口①口 |----|
口①口口 |----|
6
口口口口 |①---|
①口①口 |----|
口口口口 |----|
口口口口 |----|
7
口口口口 |①---|
口口口口 |----|
口①口① |----|
口口口口 |----|
8
①口口① |①---|
②口口② |----|
口口口口 |②---|
口口口口 |----|
9
口口口口 |①---|
口口口口 |----|
口②②口 |②---|
口①①口 |----|
10
口口口口 |①---|
口①③口 |②---|
口②④口 |③---|
口口口口 |④---|
11
口口口口 |①---|
①口口③ |②---|
②口口④ |③---|
口口口口 |④---|
12
口口口口 |①---|
口口口口 |②---|
①②④③ |③---|
口口口口 |④---|
13
口口口口 |①---|
①②④③ |②---|
口口口口 |③---|
口口口口 |④---|
14
口口口口 |①---|
口口口口 |----|
口①①口 |----|
口口口口 |----|
15
口口口口 |①---|
口①①口 |----|
口口口口 |----|
口口口口 |----|
16
口口口口 |①---|
口口口口 |----|
①口口① |----|
口口口口 |----|
17
口口口口 |①---|
口口口口 |----|
口口口口 |----|
①口口① |----|
18
口口口口 |①---|
口口口口 |----|
口②②口 |②---|
口①①口 |----|
19
口②②口 |①---|
口①①口 |----|
口口口口 |②---|
口口口口 |----|
20
口口口口 |①---|
②口口② |----|
①口口① |②---|
口口口口 |----|
21
口①②口 |①---|
口③④口 |②---|
口口口口 |③---|
口口口口 |④---|
22
口口口口 |①---|
口口口口 |----|
口口口口 |----|
口①①口 |----|
23
口口口口 |①---|
口口口口 |②---|
口②④口 |③---|
口①③口 |④---|
24
口①口口 |①---|
口口②口 |②---|
口③口口 |③---|
口口④口 |④---|
25
口口口口 |①---|
②口口④ |②---|
①口口③ |③---|
口口口口 |④---|
26
口①口口 |①---|
口口②口 |②---|
口③口口 |③---|
口口④口 |④---|
27
口口口口 |①---|
口口④口 |②---|
口②③口 |③---|
口①口口 |④---|
28
口②口口 |①---|
口①④口 |②---|
口口③口 |③---|
口口口口 |④---|
29
②口口④ |①---|
①口口③ |②---|
口口口口 |③---|
口口口口 |④---|
30
口①①口 |①---|
口②②口 |②---|
④③③④ |③---|
口口口口 |④---|
31
口口口口 |①---|
口口口口 |②---|
口②④口 |③---|
口①③口 |④---|
32
口①口口 |①---|
口口②口 |②---|
口③口口 |③---|
口口④口 |④---|
33
口口口口 |①---|
口②④口 |②---|
口口口口 |③---|
口①③口 |④---|
34
①口口① |①---|
②口口② |②---|
③口口③ |③---|
④口口④ |④---|
35
口④②口 |①---|
口③③口 |②---|
口①①口 |③---|
口口口口 |④---|
36
口口②口 |①---|
④口口④ |②---|
③①①③ |③---|
口口口口 |④---|
37
①④口① |①---|
口②②口 |②---|
口③③口 |③---|
口口口口 |④---|
38
口口口口 |①---|
口③①口 |②---|
口④②口 |③---|
口口口口 |④---|
39
口口口口 |①---|
④口口口 |②---|
③口口口 |③---|
②①①口 |④---|
40
口口口口 |①---|
口口口④ |②---|
口口口③ |③---|
口①①② |④---|
41
口口口④ |①---|
口口③口 |②---|
口②口口 |③---|
①口口口 |④---|
42
口口口口 |①---|
口口口口 |----|
口口①① |----|
口口口口 |----|
43
①口口口 |①---|
口②口口 |②---|
口口③口 |③---|
口口口④ |④---|
44
口口口口 |①---|
②②①① |----|
口口口口 |②---|
口口口口 |----|
45
④口口口 |①---|
③口口口 |②---|
②口口口 |③---|
①口口口 |④---|
46
口口①口 |①---|
口口②口 |②---|
口口③口 |③---|
口口④口 |④---|
47
口口口口 |①---|
口口口口 |②---|
③口②③ |③---|
口①口口 |----|
48
口口口口 |①---|
口①①口 |----|
口口口口 |----|
口口口口 |----|
49
口口口口 |①---|
口口口口 |②---|
口②④口 |③---|
口①③口 |④---|
50
口①口口 |①---|
口口②口 |②---|
口③口口 |③---|
口口④口 |④---|
51
口口口口 |①---|
②口口④ |②---|
①口口③ |③---|
口口口口 |④---|
52
口①口口 |①---|
口口②口 |②---|
口③口口 |③---|
口口④口 |④---|
53
口口口口 |①---|
口口④口 |②---|
口②③口 |③---|
口①口口 |④---|
54
口②口口 |①---|
口①④口 |②---|
口口③口 |③---|
口口口口 |④---|
55
②口口④ |①---|
①口口③ |②---|
口口口口 |③---|
口口口口 |④---|
56
口①①口 |①---|
口②②口 |②---|
④③③④ |③---|
口口口口 |④---|
57
口口口口 |①---|
口口口口 |②---|
口②④口 |③---|
口①③口 |④---|
58
口①口口 |①---|
口口②口 |②---|
口③口口 |③---|
口口④口 |④---|
59
口口口口 |①---|
口②④口 |②---|
口口口口 |③---|
口①③口 |④---|
60
①口口① |①---|
②口口② |②---|
③口口③ |③---|
④口口④ |④---|
61
口④②口 |①---|
口③③口 |②---|
口①①口 |③---|
口口口口 |④---|
62
口口②口 |①---|
④口口④ |②---|
③①①③ |③---|
口口口口 |④---|
63
①④口① |①---|
口②②口 |②---|
口③③口 |③---|
口口口口 |④---|
64
口口口口 |①---|
口③①口 |②---|
口④②口 |③---|
口口口口 |④---|
65
口口口口 |①---|
口③④口 |②---|
口口②口 |③---|
口①①口 |④---|
66
④口口④ |①---|
③口口③ |②---|
②口口② |③---|
①口口① |④---|
67
口口口口 |①---|
口③④口 |②---|
口口②口 |③---|
口①①口 |④---|
68
④口口④ |①---|
③口口③ |②---|
②口口② |③---|
①口口① |④---|
69
口口口口 |①---|
口③④口 |②---|
口口②口 |③---|
口①①口 |④---|
70
④口口④ |①---|
③口口③ |②---|
②口口② |③---|
①口口① |④---|
71
口口口口 |①---|
口口口口 |----|
口口口口 |----|
口①①口 |----|

最終更新:2012年11月06日 22:03