Crosswind
Mutsuhiko Izumi

BASIC

Level: 3
BPM: 107
Notes: 201

1
口口口口 |----|
口口口口 |----|
口口口口 |----|
口口口口 |----|
2
口口口口 |①-②-|
①②③口 |③---|
口⑤口④ |④---|
口口口口 |⑤---|
3
口口口口 |①-②-|
口③②① |③---|
④口⑤口 |④---|
口口口口 |⑤---|
4
口口口口 |①-②-|
口③②① |③---|
④口⑤口 |④---|
口口口口 |⑤---|
5
口口口口 |①-②-|
①②③口 |③---|
口⑤口④ |④---|
口口口口 |⑤---|
6
③④②口 |----|
口①⑤口 |--①-|
口口口口 |②--③|
口口口口 |-④-⑤|
7
口②③① |----|
口口口口 |----|
口口口口 |-①--|
口口口口 |②-③-|
8
③口④⑤ |①-②-|
口①②口 |----|
口口口口 |-③--|
口口口口 |④-⑤-|
9
口口口口 |-①--|
①口②③ |②-③-|
口口口口 |④---|
口④④口 |----|
10
④⑤③口 |--①-|
①②⑥① |--②-|
口口口口 |③--④|
口口口口 |-⑤-⑥|
11
②④③① |--①-|
口口口口 |----|
口口口口 |-②--|
口口口口 |③-④-|
12
③④⑤口 |①-②-|
口②①口 |----|
口口口口 |-③--|
口口口口 |④-⑤-|
13
口口口口 |①②-③|
口口②① |-④--|
口③口口 |----|
口口④口 |----|
14
①口口口 |①---|
口②口口 |--②-|
口口口口 |----|
口口口口 |----|
15
口口口① |①---|
口口②口 |--②-|
口口口口 |----|
口口口口 |----|
16
口①②口 |①---|
口③④口 |②---|
口口口口 |③---|
口口口口 |④---|
17
①口口口 |①---|
口②③④ |②---|
口口口口 |③---|
口口口口 |④---|
18
口口口① |①---|
口口②口 |--②-|
口口口口 |----|
口口口口 |----|
19
①口口口 |①---|
口②口口 |--②-|
口口口口 |----|
口口口口 |----|
20
口②①口 |①---|
口④③口 |②---|
口口口口 |③---|
口口口口 |④---|
21
口③口① |①---|
④口②口 |②---|
口口口口 |③---|
口口口口 |④---|
22
口②口口 |①---|
口口口口 |--②-|
口口①口 |----|
口口口口 |----|
23
口口口口 |----|
口口口口 |----|
口口口口 |----|
口口口口 |----|
24
口口①口 |①-②-|
口②③口 |③-④-|
口④⑤口 |⑤---|
口口口口 |----|
25
②口口口 |①---|
口①③口 |----|
口口口口 |②---|
口口口口 |③---|
26
口①口口 |①--②|
口②口口 |--③-|
口③口口 |----|
口口口口 |----|
27
口口③口 |①---|
④②口口 |②--③|
口口口口 |----|
口口①口 |-④--|
28
④①②③ |①--②|
口口口口 |--③-|
口口口口 |----|
口口口口 |④---|
29
口口①口 |①---|
口②口口 |②-③-|
口口③口 |④---|
口口口④ |----|
30
口⑤口④ |①--②|
口口口③ |-③-④|
口①口② |----|
口口口口 |⑤---|
31
④口⑤口 |①--②|
③口口口 |-③-④|
②口①口 |----|
口口口口 |⑤---|
32
口口口⑤ |①--②|
口④③② |-③-④|
口①口口 |----|
口口口口 |⑤---|
33
⑤⑤口口 |①--②|
②③④口 |-③-④|
口口①口 |----|
口口口口 |⑤---|
34
口口口① |①---|
口②口口 |----|
口口口口 |②---|
口口口口 |----|
35
口⑥⑦口 |①-②-|
口④⑤口 |③-④-|
口②③口 |⑤-⑥-|
口口①口 |⑦---|
36
①口口口 |①---|
口口②口 |②---|
口③口口 |③---|
口口④口 |④---|
37
口口口③ |①---|
口口口② |②---|
口口口① |③---|
口口口口 |----|
38
口⑤口④ |①--②|
口口口③ |-③-④|
口①口② |----|
口口口口 |⑤---|
39
④口⑤口 |①--②|
③口口口 |-③-④|
②口①口 |----|
口口口口 |⑤---|
40
口口口⑤ |①--②|
口④③② |-③-④|
口①口口 |----|
口口口口 |⑤---|
41
⑤口口口 |①--②|
②③④口 |-③-④|
口口①口 |----|
口口口口 |⑤---|
42
口②口① |①---|
口口口口 |----|
口口口口 |②---|
口口口口 |----|
43
口④④口 |①---|
口口①口 |②---|
口②口口 |③---|
口口③口 |④---|
44
口口口口 |①-②-|
①②③口 |③---|
口⑤口④ |④---|
口口口口 |⑤---|
45
口口口口 |①-②-|
口③②① |③---|
④口⑤口 |④---|
口口口口 |⑤---|
46
口口口口 |①-②-|
①②③口 |③---|
口⑤口④ |④---|
口口口口 |⑤---|
47
口口口口 |①-②-|
口③②① |③---|
④口⑤口 |④---|
口口口口 |⑤---|
48
口口口口 |----|
口①口口 |--①-|
口口口口
口口口口

口口口口
口⑤⑤口
④口②④ |②--③|
③口口③ |-④-⑤|
49
①口口① |--①-|
口口口口 |----|
口口口口 |----|
口口口口 |----|


不确定度: 0

最終更新:2012年11月11日 17:15