Crosswind
Mutsuhiko Izumi

ADVANCED

Level: 7
BPM: 107
Notes: 488

1
①口口② |----|
③口口④ |----|
口口口口 |----|
口口口口 |①②③④|
2
口②口口 |①-②-|
口⑤④口 |③-④⑤|
口①口口
口口③口

⑨口口口
口口口⑨
口⑦⑥⑧ |-⑥⑦-|
⑧口口口 |⑧-⑨-|
3
口③口口 |①-②-|
口口①口 |③-④⑤|
口④⑤口
口口②口

⑧口口⑧
⑧⑥⑦⑧
口口口口 |-⑥⑦-|
口口口口 |⑧---|
4
口②口口 |①-②-|
口⑤④口 |③-④⑤|
口①口口
口口③口

⑨口口口
口口口⑨
口⑦⑥⑧ |-⑥⑦-|
⑧口口口 |⑧-⑨-|
5
口③口口 |①-②-|
口口①口 |③-④⑤|
口④⑤口
口口②口

口口口口
口⑥⑦口
⑧口口⑧ |-⑥⑦-|
⑧口口⑧ |⑧---|
6
口口口⑦ |----|
①②口⑥ |--①②|
③④口⑤ |③④-⑤|
口口口口 |-⑥-⑦|
7
①口③口 |----|
口②口⑦ |----|
口④口⑥ |-①②③|
口口⑤口 |④⑤⑥⑦|
8
口②口④ |①②③④|
①口③口 |----|
口口口口
口口口口

口⑨⑩口
⑧口口口
口⑦口⑤ |-⑤⑥⑦|
口口⑥口 |⑧⑨⑩-|
9
口口口⑦ |-①②③|
口口⑥④ |④⑤⑥⑦|
①⑤③口
口②口口

口⑧⑧口
⑨⑨口口
⑪口口⑪ |⑧⑨-⑩|
口⑩⑩口 |-⑪--|
10
⑥口口口 |--①-|
⑦①①口 |--②③|
⑧①①口 |④⑤-⑥|
②③④⑤ |-⑦-⑧|
11
口口口口 |--①-|
口①①口 |----|
口口口口
口口口口

②③⑧口
⑥⑦④⑤
口口口口 |-②③④|
口口口口 |⑤⑥⑦⑧|
12
口口口① |①②③④|
口口口口 |----|
口②③口
口④口口

口⑤⑥口
口⑦⑧口
口⑨⑩口 |-⑤⑥⑦|
口⑪口口 |⑧⑨⑩⑪|
13
①口口① |①②-③|
②口口② |-④--|
④口口④
③口口③

⑥口口⑥
口口口口
口⑤⑤口 |--⑤⑥|
口口口口 |----|
14
口口口口 |①---|
①①②② |--②-|
口口口口 |----|
②②①① |----|
15
①①②② |①---|
口口口口 |--②-|
②②①① |----|
口口口口 |----|
16
⑪⑦⑧⑪ |①②③④|
⑨⑩⑤⑥ |⑤⑥⑦⑧|
口③④口 |⑨⑩⑪-|
①②口口 |----|
17
口口⑧⑦ |①②③④|
⑤⑥口口 |⑤⑥⑦⑧|
⑨⑩④③ |⑨⑩--|
①②口口 |----|
18
①①②② |①---|
口口口口 |--②-|
②②①① |----|
口口口口 |----|
19
口口口口 |①---|
①①②② |--②-|
口口口口 |----|
②②①① |----|
20
①②④③ |①②③④|
⑤⑥⑧⑦ |⑤⑥⑦⑧|
⑨⑩⑫⑪ |⑨⑩⑪⑫|
口⑬⑬口 |⑬---|
21
①②③口 |①-②-|
口口口④ |③-④⑤|
口口⑤口 |⑥---|
口⑥口口 |----|
22
①口口口 |----|
口①口① |--①-|
①口①口 |----|
口口口① |----|
23
口口口口 |----|
口口口口 |----|
口口口口 |----|
口口口口 |----|
24
①⑧⑦⑥ |①-②③|
口③⑨⑤ |④⑤⑥⑦|
②⑩④口 |----|
口口口口 |-⑧⑨⑩|
25
口口口① |----|
口②口口 |----|
口口③口 |-①-②|
口④口口 |③④--|
26
③口口③ |①--②|
口口口口 |--③-|
②口口② |----|
①口口① |----|
27
⑤⑥⑦⑤ |①-②-|
口②口口 |③④-⑤|
口口④口 |----|
口①③口 |-⑥⑦-|
28
口口口口 |①--②|
①口口口 |--③-|
口⑤口② |----|
③口④口 |-④⑤-|
29
②口①口 |①---|
口③④口 |②-③④|
口⑤⑥口 |⑤⑥⑦-|
口⑦口口 |----|
30
口口口⑥ |①②③④|
①②⑤口 |-⑤-⑥|
口⑤③④
⑥口口口

口⑧⑨口
⑦口口口
口口⑩⑪ |-⑦⑧⑨|
口⑬⑫口 |⑩⑪⑫⑬|
31
⑥口口口 |①②③④|
口⑤②① |-⑤-⑥|
④③⑤口
口口口⑥

口⑪⑪⑦
口口⑨口
口口口⑧ |⑦⑧⑨⑩|
口口⑩口 |⑪---|
32
口口口⑥ |①②③④|
①②⑤口 |-⑤-⑥|
口⑤③④
⑥口口口

⑦⑫⑬口
⑪⑧口口
口口⑩口 |-⑦⑧⑨|
口⑨口口 |⑩⑪⑫⑬|
33
⑥口口口 |①②③④|
口⑤②① |-⑤-⑥|
④③⑤口
口口口⑥

口口口口
⑧口口⑧
口口口口 |⑦---|
口⑦⑦口 |⑧---|
34
①口口① |①---|
②①①口 |---②|
①口口①
口口口口

口⑥口口
口口④⑦
口③口⑤ |③④⑤-|
口口口口 |--⑥⑦|
35
口⑦⑥口 |①②③④|
⑤口口⑧ |⑤⑥⑦⑧|
①口口④
口③②口

口⑮⑭口
⑬口口⑯
⑨口口⑫ |⑨⑩⑪⑫|
口⑪⑩口 |⑬⑭⑮⑯|
36
口口口口 |①-②③|
⑥①①⑦ |④⑤⑥⑦|
④②②⑤
③口口③

口口⑫口
口⑪口口
口口⑩口 |⑧⑨⑩⑪|
口⑨⑧口 |⑫---|
37
①②⑨⑨ |①②③④|
③④口口 |⑤⑥⑦⑧|
⑤⑥口口 |⑨---|
⑦⑧口口 |----|
38
口口口⑥ |①②③④|
①②⑤口 |-⑤-⑥|
口⑤③④
⑥口口口

口⑧⑨口
⑦口口口
口口⑩⑪ |-⑦⑧⑨|
口⑬⑫口 |⑩⑪⑫⑬|
39
⑥口口口 |①②③④|
口⑤②① |-⑤-⑥|
④③⑤口
口口口⑥

口⑪⑪⑦
口口⑨口
口口口⑧ |⑦⑧⑨⑩|
口口⑩口 |⑪---|
40
口口口⑥ |①②③④|
①②⑤口 |-⑤-⑥|
口⑤③④
⑥口口口

⑦⑫⑬口
⑪⑧口口
口口⑩口 |-⑦⑧⑨|
口⑨口口 |⑩⑪⑫⑬|
41
⑥口口口 |①②③④|
口⑤②① |-⑤-⑥|
④③⑤口
口口口⑥

口口口口
⑧口口⑧
口口口口 |⑦---|
口⑦⑦口 |⑧---|
42
①②③① |①---|
口④⑤口 |②③④⑤|
口⑥⑦口 |⑥⑦⑧-|
口⑧口口 |----|
43
口口口口 |①---|
口口口① |----|
①口口口 |----|
口口口口 |----|
44
口②口口 |①-②-|
口⑤④口 |③-④⑤|
口①口口
口口③口

⑨口口口
口口口⑨
口⑦⑥⑧ |-⑥⑦-|
⑧口口口 |⑧-⑨-|
45
口③口口 |①-②-|
口口①口 |③-④⑤|
口④⑤口
口口②口

⑧口口⑧
⑧⑥⑦⑧
口口口口 |-⑥⑦-|
口口口口 |⑧---|
46
口②口口 |①-②-|
口⑤④口 |③-④⑤|
口①口口
口口③口

⑨口口口
口口口⑨
口⑦⑥⑧ |-⑥⑦-|
⑧口口口 |⑧-⑨-|
47
口③口口 |①-②-|
口口①口 |③-④⑤|
口④⑤口
口口②口

口口口口
口⑥⑦口
⑧口口⑧ |-⑥⑦-|
⑧口口⑧ |⑧---|
48
口④①口 |----|
⑤③②⑤ |--①②|
⑥②③⑥ |③④-⑤|
⑦①④⑦ |-⑥-⑦|
49
①①①① |--①-|
口口口口 |----|
口口口口 |----|
口口口口 |----|


不确定度: 0

最終更新:2012年11月11日 17:14