Crosswind
Mutsuhiko Izumi

EXTREME

Level: 9
BPM: 107
Notes: 705

1
①口口口 |----|
口口口④ |----|
③口口口 |----|
口口口② |①②③④|
2
口②⑤口 |①-②-|
口①①口 |③-④⑤|
④①①③
口口口口

口口口口
⑧⑧口口
口口⑨⑨ |-⑥⑦-|
口⑥⑦口 |⑧-⑨-|
3
①口口口 |①-②-|
口口①③ |③-④⑤|
口口口口
④②口⑤

⑧口口⑧
口⑥⑦口
⑧口口⑧ |-⑥⑦-|
口口口口 |⑧---|
4
口①①口 |①-②-|
③口口④ |③-④⑤|
口口口口
口⑤②口

口⑦⑥口
⑨⑨口口
口口⑧⑧ |-⑥⑦-|
口口口口 |⑧-⑨-|
5
①口口口 |①-②-|
口口①③ |③-④⑤|
口④⑤口
口②口口

⑦口口⑥
⑧口口⑧
口口口口 |-⑥⑦-|
⑧口口⑧ |⑧---|
6
①口口口 |----|
口口口口 |--①②|
口口②口
口口口口

⑦⑦⑦⑦
口口口④
⑤口口⑥ |③④-⑤|
⑥③口⑤ |-⑥-⑦|
7
口③口① |----|
口⑤口⑦ |----|
口口②口 |-①②③|
④口⑥口 |④⑤⑥⑦|
8
④④④④ |①②③④|
口口③口 |----|
口②口口
口口口①

口⑧口口
口口⑨⑦
⑥⑩口口 |-⑤⑥⑦|
口口⑤口 |⑧⑨⑩-|
9
口口④口 |-①②③|
③⑤口口 |④⑤⑥⑦|
口⑦⑥②
口①口口

⑨口口⑨
⑪口口⑪
⑪口口⑪ |⑧⑨-⑩|
⑧⑩⑩⑧ |-⑪--|
10
①②⑦⑥ |--①-|
④⑧①口 |--②③|
口①⑧③ |④⑤-⑥|
⑥⑦⑤① |-⑦-⑧|
11
口口口口 |--①-|
①口口① |----|
①口口①
口口口口

口⑦口⑤
口③口口
⑧口⑥口 |-②③④|
②口④口 |⑤⑥⑦⑧|
12
①口口口 |①②③④|
口口②口 |----|
口③口口
④④④④

⑤口口口
⑪口口⑥
⑦口口⑩ |-⑤⑥⑦|
⑨口口⑧ |⑧⑨⑩⑪|
13
③口②③ |①②-③|
口②口口 |-④--|
口口①口
④①口④

口⑥⑥口
口口口口
口口口口 |--⑤⑥|
口⑤⑤口 |----|
14
①口口② |①---|
②①②① |--②-|
①②①② |----|
口口口口 |----|
15
②口口① |①---|
①②①② |--②-|
口①②口 |----|
①口口② |----|
16
①⑫⑩⑧ |①②③④⑤⑥⑦⑧|
③⑭⑮⑥ |⑨⑩⑪⑫⑬⑭⑮⑯|
⑤⑯⑬④
⑦⑨⑪②

⑱口口口
⑳口口A
A口口⑲ |⑰⑱⑲⑳A---|
口口口⑰ |----|
17
①口口⑧ |①②③④⑤⑥⑦⑧|
口⑦②口
口③⑥口
⑤口口④

⑯口⑬口 |⑨⑩⑪⑫⑬⑭⑮⑯|
⑨口口⑩
⑫口口⑭
口⑮⑪口

口口口口
口口⑰口
口⑱口口 |⑰⑱⑲-----|
口口口⑲ |----|
18
口口口口 |①---|
①②①② |--②-|
②①②① |----|
①口口② |----|
19
②口口① |①---|
①②①② |--②-|
口①②口 |----|
①口口② |----|
20
①⑫⑩⑧ |①②③④⑤⑥⑦⑧|
③⑭⑮⑥ |⑨⑩⑪⑫⑬⑭⑮⑯|
⑤⑯⑬④
⑦⑨⑪②

⑱口EC
⑳口口A
B口口⑲ |⑰⑱⑲⑳ABCD|
DE口⑰ |E---|
21
①口口⑧ |①②③④⑤⑥⑦⑧|
⑤⑦②口
口③⑥口
口口口④

⑯⑨⑬口
口口口⑩ |⑨⑩⑪⑫⑬⑭⑮⑯|
⑫口口⑭
口⑮⑪口

口口口口
口口⑰口
口口口口 |⑰⑱⑲-----|
⑱口口⑲ |----|
22
④①①口 |①②-③|
口④②④ |--④-|
④②④口
口③③④

口⑤口口
口口⑥口
口口口口 |-⑤⑥-|
口⑦⑧口 |⑦-⑧-|
23
口⑥⑤口 |①②③④|
③口⑦④ |⑤-⑥⑦|
口①②口
口口口口

口口口口
⑩⑧口⑩
口口⑨口 |-⑧⑨-|
口口口口 |⑩---|
24
⑦①口⑦ |①-②③|
口口⑥口 |④⑤⑥⑦|
口⑤②口
口③④口

口⑧口口
口口口⑪
⑫口⑨口 |-⑧⑨-|
口⑩口⑬ |⑩⑪⑫⑬|
25
口④①口 |①-②③|
口②口⑤ |④-⑤⑥|
⑥口③口
口口口口

口口口⑦
⑧口口口
口⑪⑪⑨ |-⑦⑧⑨|
口⑩⑩口 |⑩⑪--|
26
口口④③ |①--②|
②⑤口口 |--③-|
①口口② |-④⑤-|
③⑦⑥① |⑥-⑦-|
27
④口口④ |①-②-|
①⑤⑤① |③④-⑤|
③⑤⑤③
②口口②

口⑦⑦口
口口口口
⑥口口⑥ |----|
口口口口 |-⑥⑦-|
28
③③③③ |①--②|
②口口② |--③-|
口①①口
口口口口

⑥口口⑥
口口口口
④⑤口口 |----|
口口⑤④ |-④⑤⑥|
29
口①①口 |①---|
②③口② |②-③④|
口⑦④口 |⑤⑥⑦-|
口⑤⑥口 |----|
30
口①④④ |①②③④|
⑥口③⑤ |-⑤-⑥|
⑤③口⑥
④④②口

⑦口口⑩
口⑧⑪口
口⑫⑨口 |-⑦⑧⑨|
⑬口口口 |⑩⑪⑫⑬|
31
③口④口 |①②③④|
②④口③ |-⑤-⑥|
①⑥⑤②
口⑤⑥①

⑪口口⑩
⑨口口⑪
口口口⑧ |⑦⑧⑨⑩|
⑦口口口 |⑪---|
32
口①④④ |①②③④|
⑥口③⑤ |-⑤-⑥|
⑤③口⑥
④④②口

⑦口口⑩
口⑧⑪口
口⑫⑨口 |-⑦⑧⑨|
⑬口口口 |⑩⑪⑫⑬|
33
③口④口 |①②③④|
②④口③ |-⑤-⑥|
①⑥⑤②
口⑤⑥①

口⑧⑧口
⑧口口⑧
口口口口 |⑦---|
⑦口口⑦ |⑧---|
34
①口口① |①---|
②①①口 |---②|
①口口①
口口口口

⑥⑦④口
口口口口
口口口⑤ |③④⑤-|
口③⑨⑧ |----⑥⑦⑧⑨|
35
⑬⑭⑧⑦ |①②③④⑤⑥⑦⑧|
①⑩⑫③ |⑨⑩⑪⑫⑬⑭⑮⑯|
⑨②④⑪
⑤⑥⑯⑮

IJDC
⑰FH⑲
E⑱⑳G |⑰⑱⑲⑳ABCD|
AB口口 |EFGHIJ--|
36
口口口口 |①-②③|
⑥口口⑦ |④⑤⑥⑦|
④②③⑤
口口①①

口口口口
口⑩⑨口
口⑫⑫口 |⑧⑨⑩⑪|
口⑧⑪口 |⑫---|
37
口口②④ |①②③④|
①③⑨⑨ |⑤⑥⑦⑧|
⑨⑨⑥⑧ |⑨---|
⑤⑦口口 |----|
38
口①④④ |①②③④|
⑥口③⑤ |-⑤-⑥|
⑤③口⑥
④④②口

⑦口口⑩
口⑧⑪口
口⑫⑨口 |-⑦⑧⑨|
⑬口口口 |⑩⑪⑫⑬|
39
③口④口 |①②③④|
②④口③ |-⑤-⑥|
①⑥⑤②
口⑤⑥①

⑪口口⑩
⑨口口⑪
口口口⑧ |⑦⑧⑨⑩|
⑦口口口 |⑪---|
40
口①④④ |①②③④|
⑥口③⑤ |-⑤-⑥|
⑤③口⑥
④④②口

⑦口口⑩
口⑧⑪口
口⑫⑨口 |-⑦⑧⑨|
⑬口口口 |⑩⑪⑫⑬|
41
③口④口 |①②③④|
②④口③ |-⑤-⑥|
①⑥⑤②
口⑤⑥①

口⑧⑧口
⑧口口⑧
口口口口 |⑦---|
⑦口口⑦ |⑧---|
42
①⑧⑧① |①-②-|
⑦①①⑦ |③④⑤⑥|
①④⑤① |⑦⑧--|
⑥②②③ |----|
43
①②②① |①②③④|
④③③④ |-⑤-⑥|
⑤口口⑤
⑥口口⑥

⑧⑦⑦⑧
⑨⑪⑪⑨
口口口口 |-⑦⑧⑨|
口⑩⑩口 |⑩⑪--|
44
②口口口 |①-②-|
口口口⑤ |③-④⑤|
④①①③
口口口口

口口口口
⑧⑧口口
口口⑨⑨ |-⑥⑦-|
口⑥⑦口 |⑧-⑨-|
45
①口口口 |①-②-|
口口①③ |③-④⑤|
口口口口
④②口⑤

⑧口口⑧
口⑥⑦口
⑧口口⑧ |-⑥⑦-|
口口口口 |⑧---|
46
口口①口 |①-②-|
③口口④ |③-④⑤|
口①口口
口⑤②口

口⑦⑥口
⑨⑨口口
口口⑧⑧ |-⑥⑦-|
口口口口 |⑧-⑨-|
47
①口口口 |①-②-|
口口①③ |③-④⑤|
口④⑤口
口②口口

⑦口口⑥
⑧口口⑧
口口口口 |-⑥⑦-|
⑧口口⑧ |⑧---|
48
⑦④①⑦ |----|
③口口② |--①②|
②⑥⑥③ |③④-⑤|
⑤①④⑤ |-⑥-⑦|
49
口口口口 |--①-|
①①①① |----|
口口口口 |----|
口口口口 |----|


不确定度: 0

最終更新:2012年11月12日 15:32