Chance and Dice
日本少年

EXTREME

Level: 8
BPM: 150
Notes: 443

1
口口口口 |----|
口口口口 |----|
口口口口 |----|
口口口口 |----|
2
口口口口 |----|
口口口口 |----|
口口口口 |----|
口口口口 |----|
3
口①⑦⑦ |①-②-|
口③②④ |③-④-|
④②①⑥ |⑤---⑥-|
口口③⑤ |--⑦---|
4
⑥①口口 |①-②-|
口③②口 |③---|
⑤②①口 |④---⑤-|
④口③口 |--⑥---|
5
⑥⑥①口 |①-②-|
口②③口 |③---|
口①②⑤ |④---⑤-|
④③口口 |--⑥---|
6
口口①② |①-②-|
①②④③ |③-④-|
④③口⑤ |⑤---⑥-|
⑦口口⑥ |--⑦---|
7
口①⑦⑦ |①-②-|
口③②④ |③-④-|
④②①⑥ |⑤---⑥-|
口口③⑤ |--⑦---|
8
⑥①口口 |①-②-|
口③②口 |③---|
⑤②①口 |④---⑤-|
④口③口 |--⑥---|
9
⑥⑥①口 |①-②-|
口②③口 |③---|
口①②⑤ |④---⑤-|
④③口口 |--⑥---|
10
口口①② |①-②-|
①②④③ |③-④-|
④③口口
口口口口

⑧口口口
口⑨口口
口口⑤口 |⑤---⑥-|
⑦口⑥口 |----⑦-⑧--⑨--|
11
口口①③ |①---②-|
口口②④ |--③---|
口口⑥口 |④---|
口口口⑤ |--⑤⑥|
12
口口⑥⑤ |①---②-|
口口口口 |--③---|
④②口口 |④---|
③①口口 |--⑤⑥|
13
口①口口 |①---②-|
口②口口 |--③---|
⑥口③⑤ |④---⑤-|
口④口口 |--⑥-|
14
口口口口 |①---②-|
口②①③ |--③---|
口口口口
口口口口

⑤口口口
④⑥口口
口口口口 |④---|
口口口口 |--⑤⑥|
15
口口①③ |①---②-|
口口②④ |--③---|
口口⑥口 |④---|
口口口⑤ |--⑤⑥|
16
口口口口 |①---②-|
口⑤口口 |--③---|
④②⑤口 |④---|
③①口口 |⑤---|
17
②④口③ |①---|
口口①④ |--②---|
口①口口 |③---|
③口口② |--④-|
18
口口口口 |①-②-|
①②口口 |③-④-|
③口①②
④口③④

⑤口口⑤
口口口口
口⑥⑥口 |⑤---|
口口口口 |⑥---|
19
口②口口 |①---②-|
①口③① |--③---|
口④⑥口 |④---|
口口口⑤ |--⑤⑥|
20
口口口口 |①---②-|
口口口口 |--③---|
④⑤⑥口 |④---|
③②①口 |--⑤⑥|
21
口口口口 |①---②-|
口口口口 |--③---|
③口口⑥ |④---⑤-|
④②①⑤ |--⑥---|
22
②口⑥⑤ |①---②-|
③口口① |--③---|
④口口口 |④---|
口口口口 |--⑤⑥|
23
⑤⑥口口 |①---②-|
口口①② |--③---|
口口口③ |④---|
口口口④ |--⑤⑥|
24
口口口口 |①---②-|
②①口口 |--③---|
③口口口 |④---|
④⑤⑤口 |⑤---|
25
口④④口 |①---|
③⑤⑤③ |--②---|
②①①② |③---④-|
口口口口 |--⑤---|
26
口口口② |①---|
口口口③ |----|
③①①口 |②---|
②口口口 |③---|
27
口⑤口口 |①---|
①④口口 |--②---|
口③口① |③---④-|
口②口口 |--⑤---|
28
①口口① |①---|
口口口口 |----|
口口③口 |②---|
口口②口 |③---|
29
口口口② |①---|
口口①口 |--②---|
口口口口
口口口口

口口③口
口口⑤④
口口口口 |③---④-|
口口口口 |--⑤---|
30
①口口口 |①---|
口①口⑤ |--②---|
口口③④ |③---④-|
口口②口 |--⑤---|
31
口②口① |①---|
④③口口 |--②---|
⑤口口口 |③---④-|
口口口口 |--⑤---|
32
口⑤⑤口 |①---|
口④④口 |--②---|
口③③口 |③---④-|
①②②口 |--⑤---|
33
①口口① |①---|
口口口口 |--②---|
口口口口
口口口②

口口口⑤
口口口④
口口口③ |③---④-|
口口口口 |--⑤---|
34
口口口口 |①---②-|
口口口口 |--③---|
①②③④ |④---|
口口口口 |----|
35
②口口③ |①---②-|
口口①口 |--③---|
④①口口 |④---|
③②口④ |----|
36
口口①② |①---|
⑥①②口 |②-③---|
口④①② |④---⑤-|
③口⑤口 |--⑥---|
37
④口口口 |①---②-|
口③口口 |--③---|
口口②口 |④---|
口口口① |----|
38
②①口口 |①---|
口②①⑥ |②-③-|
②①④口 |④---⑤-|
口⑤口③ |--⑥-|
39
口口口④ |①---②-|
口口③口 |--③---|
口②口口 |④---|
①⑤⑤口 |⑤---|
40
口口口口 |①---|
②口口口 |--②---|
①口口①
口口口口

口口口口
口口口口
口③④⑤ |③---④-|
口口口口 |--⑤---|
41
口②口口 |①---|
口③①① |--②---|
口④口口 |③---④-|
口⑤①① |--⑤---|
42
口口④口 |①---|
②③口⑤ |--②---|
①口①口 |③---④-|
①口①口 |--⑤---|
43
口口口口 |①---②-|
⑤口口口 |--③---|
④③口① |④---⑤-|
口口②口 |----|
44
口口①② |①---|
⑥①②口 |②-③---|
口④①② |④---⑤-|
③口⑤口 |--⑥---|
45
④口口口 |①---②-|
口③口口 |--③---|
口口②口 |④---|
口口口① |----|
46
②①口口 |①---|
口②①⑥ |②-③-|
②①④口 |④---⑤-|
口⑤口③ |--⑥-|
47
口口口④ |①---②-|
口口③口 |--③---|
口②口口 |④---|
①⑤⑤口 |--⑤---|
48
口口口口 |①---|
②口口口 |--②---|
①口口①
口口口口

口口口口
口口口口
口③④⑤ |③---④-|
口口口口 |--⑤---|
49
口②口口 |①---|
口③①① |--②---|
口④口口 |③---④-|
口⑤①① |--⑤---|
50
口口口口 |①---|
②口④口 |--②---|
①③①⑤ |③---④-|
①口①口 |--⑤---|
51
口口③口 |①---|
口口口① |----|
①②口口 |②---|
口口口口 |③---|
52
①①口口 |①---|
口口②② |②---|
口口①①
②②口口

口口口口
③④口口
口口口⑤ |③---④-|
口口口口 |--⑤---|
53
口口口① |①-②-|
口口②④ |③---|
口③⑤口 |④---⑤-|
⑥口口口 |--⑥---|
54
口口①① |①---|
②②口口 |②---|
①①口口
口口②②

口口口口
口口④③
⑤口口口 |③---④-|
口口口口 |--⑤---|
55
①口口⑦ |①-②-|
⑤②口口 |③-④-|
口⑥③口 |⑤---⑥-|
口口口④ |--⑦---|
56
①①口口 |①---|
口口②② |②---|
口口①①
②②口口

口口口口
③④口口
口口口⑤ |③---④-|
口口口口 |--⑤---|
57
口口口① |①-②-|
口口②口 |③---|
⑥③口口 |④---⑤-|
口口⑤④ |--⑥---|
58
①①④③ |①---|
⑤口②② |②---|
口口①① |③---④-|
②②口口 |--⑤---|
59
①口口口 |①-②-|
口②口口 |③-④-|
⑤⑥③⑦ |⑤---⑥-|
口口口④ |--⑦---|
60
①①①① |①---|
口①①口 |----|
口口口口 |----|
口口口口 |----|
61
口口口口 |----|
口口口口 |----|
口口口口 |----|
口口口口 |----|
62
口口口① |①---|
①口①口 |----|
口①口① |----|
①口口口 |----|


不确定度: 0

最終更新:2012年11月11日 17:04