bass 2 bass
Ryu☆

BASIC

Level: 5
BPM: 140
Notes: 298

1
口口口口 |----|
口口口口 |----|
口口口口 |----|
口口口口 |----|
2
口口口口 |----|
口口口口 |----|
口口口口 |----|
口口口口 |----|
3
口口口口 |①-②-|
①②③④ |③-④-|
口口口口
口口口口

口口口口
⑦口口口
⑥口口口 |--⑤-|
⑤口口口 |⑥-⑦-|
4
①口口口 |①-②-|
口口口口 |③-④-|
⑤④③② |⑤---|
口口口口 |----|
5
口①口口 |①-②-|
口②口口 |③-④-|
口③口口
口④口口

口⑦⑥⑤
口口口口
口口口口 |--⑤-|
口口口口 |⑥-⑦-|
6
①口口口 |①-②-|
②口口口 |③-④-|
③口⑤⑥ |--⑤-|
④口口口 |--⑥-|
7
口口口口 |①-②-|
①②③④ |③-④-|
口口口口
口口口口

口口口口
⑦口口口
⑥口口口 |--⑤-|
⑤口口口 |⑥-⑦-|
8
①口口口 |①-②-|
口口口口 |③-④-|
⑤④③② |⑤---|
口口口口 |----|
9
①②③④ |①-②-|
口口⑤口 |③-④-|
口口⑥口 |--⑤-|
口口⑦口 |⑥-⑦-|
10
口口口口 |--①-|
①②③口 |②-③-|
口⑥④⑤ |④-⑤-|
口口口口 |--⑥-|
11
口口①口 |--①-|
②口口口 |----|
口口口口 |--②-|
口口口口 |----|
12
口①口口 |①--②|
口口②口 |--③-|
④口口③ |--④-|
口⑤口口 |-⑤--|
13
口口①口 |①--②|
口②口口 |--③-|
③口口口
口口口口

口口⑤口
口口口④
口口口口 |--④-|
口口口口 |-⑤--|
14
口⑤口口 |①--②|
④口口③ |--③-|
口口②口 |--④-|
口①口口 |-⑤--|
15
口口口口 |①--②|
口口口③ |--③-|
口口②口 |--④-|
口①口④ |----|
16
口①⑤口 |①--②|
口口②④ |--③-|
口口口③ |--④-|
口口口口 |-⑤--|
17
口口口口 |①--②|
①口口口 |--③-|
口②口口
口口③口

口④口口
⑤口口口
口口口口 |--④-|
口口口口 |-⑤--|
18
口口口口 |①--②|
口口口① |--③-|
口口②口
口③口口

口口④口
口口口⑤
口口口口 |--④-|
口口口口 |-⑤--|
19
口口口口 |①---|
口①②口 |②---|
口④③口 |③---|
口口口口 |④---|
20
口口口口 |①---|
口①②口 |②---|
口④③口 |③---|
口口口口 |④---|
21
口口口口 |①-②-|
①②③④ |③-④-|
口口口口
口口口口

口口口口
⑦口口口
⑥口口口 |--⑤-|
⑤口口口 |⑥-⑦-|
22
①口口口 |①-②-|
口口口口 |③-④-|
⑤④③② |⑤---|
口口口口 |----|
23
口①口口 |①-②-|
口②口口 |③-④-|
口③口口
口④口口

口⑦⑥⑤
口口口口
口口口口 |--⑤-|
口口口口 |⑥-⑦-|
24
①口口口 |①-②-|
②口口口 |③-④-|
③口⑤⑥ |--⑤-|
④口口口 |--⑥-|
25
口口口口 |①-②-|
①②③④ |③-④-|
口口口口
口口口口

口口口口
⑦口口口
⑥口口口 |--⑤-|
⑤口口口 |⑥-⑦-|
26
①口口口 |①-②-|
口口口口 |③-④-|
⑤④③② |⑤---|
口口口口 |----|
27
①②③④ |①-②-|
口口⑤口 |③-④-|
口口⑥口 |--⑤-|
口口⑦口 |⑥-⑦-|
28
口口口口 |--①-|
①②③口 |②-③-|
口⑥④⑤ |④-⑤-|
口口口口 |--⑥-|
29
口口①口 |--①-|
②口口口 |----|
口口口口 |--②-|
口口口口 |----|
30
口①口口 |①--②|
口口②口 |--③-|
④口口③ |--④-|
口⑤口口 |-⑤--|
31
口口①口 |①--②|
口②口口 |--③-|
③口口口
口口口口

口口⑤口
口口口④
口口口口 |--④-|
口口口口 |-⑤--|
32
口⑤口口 |①--②|
④口口③ |--③-|
口口②口 |--④-|
口①口口 |-⑤--|
33
口口口口 |①--②|
口口口③ |--③-|
口口②口 |--④-|
口①口④ |----|
34
口①⑤口 |①--②|
口口②④ |--③-|
口口口③ |--④-|
口口口口 |-⑤--|
35
口口口口 |①--②|
①口口口 |--③-|
口②口口
口口③口

口④口口
⑤口口口
口口口口 |--④-|
口口口口 |-⑤--|
36
口口口口 |①--②|
口口口① |--③-|
口口②口
口③口口

口口④口
口口口⑤
口口口口 |--④-|
口口口口 |-⑤--|
37
口口口口 |①---|
口①②口 |②---|
口④③口 |③---|
口口口口 |④---|
38
①口口② |①---|
口口口口 |②---|
口口口口 |③---|
④口口③ |④---|
39
口口口口 |①--②|
口③②① |--③-|
口④⑤口 |--④-|
口口⑥口 |⑤-⑥-|
40
口⑥⑤④ |①--②|
口口口③ |--③-|
口口口② |--④-|
口口口① |⑤-⑥-|
41
①口口口 |①--②|
②③口口 |--③-|
口④口口 |--④-|
口⑤⑥口 |⑤-⑥-|
42
口④③口 |①--②|
⑥⑤②口 |--③-|
口口①口 |--④-|
口口口口 |⑤-⑥-|
43
口口口口 |①--②|
口口⑥⑤ |--③-|
①②③④ |--④-|
口口口口 |⑤-⑥-|
44
③②①口 |①--②|
④口口口 |--③-|
⑤⑥口口 |--④-|
口口口口 |⑤-⑥-|
45
口口口口 |①--②|
口①②③ |--③-|
口口口④ |--④-|
口口⑥⑤ |⑤-⑥-|
46
口口⑥口 |①-②-|
⑤①②口 |③-④-|
口④③⑦ |⑤-⑥-|
口⑧口口 |⑦-⑧-|
47
①①口口 |--①-|
口口②② |--②-|
③③口口 |--③-|
口口④④ |--④-|
48
口口口口 |①-②-|
①②③④ |③-④-|
口口口口
口口口口

口口口口
⑦口口口
⑥口口口 |--⑤-|
⑤口口口 |⑥-⑦-|
49
①口口口 |①-②-|
口口口口 |③-④-|
⑤④③② |⑤---|
口口口口 |----|
50
口①口口 |①-②-|
口②口口 |③-④-|
口③口口
口④口口

口⑦⑥⑤
口口口口
口口口口 |--⑤-|
口口口口 |⑥-⑦-|
51
①口口口 |①-②-|
②口口口 |③-④-|
③口⑤⑥ |--⑤-|
④口口口 |--⑥-|
52
口口口口 |①-②-|
①②③④ |③-④-|
口口口口
口口口口

口口口口
⑦口口口
⑥口口口 |--⑤-|
⑤口口口 |⑥-⑦-|
53
①口口口 |①-②-|
口口口口 |③-④-|
⑤④③② |⑤---|
口口口口 |----|
54
①②③④ |①-②-|
口口⑤口 |③-④-|
口口⑥口 |--⑤-|
口口⑦口 |⑥-⑦-|
55
口口口口 |--①-|
①②③口 |②-③-|
口⑥④⑤ |④-⑤-|
口口口口 |--⑥-|
56
口①①口 |①---|
口口口口 |----|
口口口口 |----|
口口口口 |----|


不确定度: 0

最終更新:2012年11月11日 17:02