Fantasia
TЁЯRA

ADVANCED

Level: 7
BPM: 165
Notes: 480

1
口口口口 |----|
口口口口 |----|
口口口口 |----|
口口口口 |----|
2
①口口① |①--②|
口②④口 |--③-|
口③口口 |④---|
口⑤⑤口 |⑤---|
3
口口④口 |①--②|
①②口① |--③-|
⑤⑥③口 |④---|
口口口口 |--⑤⑥|
4
口口口口 |①--②|
口②④口 |--③-|
口⑤⑤① |④---|
口③口口 |⑤---|
5
口口口口 |①--②|
①③④① |--③-|
②口口② |④---|
口口口口 |----|
6
①口口① |①--②|
⑤②④⑤ |--③-|
口口口口 |④---|
口口③口 |--⑤-|
7
口口口口 |①--②|
口②④口 |--③-|
①口⑤① |④---|
口口③口 |--⑤-|
8
①口④① |①--②|
②④口③ |--③-|
⑥⑤口⑥ |④--⑤|
口口口口 |--⑥-|
9
口④④口 |①--②|
口③③口 |--③-|
口口口口 |④---|
②①①② |----|
10
①③⑦⑤ |①-②-|
②④⑧⑥ |③-④-|
口口口口 |⑤-⑥-|
口口口口 |⑦-⑧-|
11
口口口口 |①-②-|
口口口口 |③-④-|
①③⑦⑤ |⑤-⑥-|
②④⑧⑥ |⑦-⑧-|
12
①③⑦⑤ |①-②-|
②④⑧⑥ |③-④-|
口口口口 |⑤-⑥-|
口口口口 |⑦-⑧-|
13
口口口口 |①-②-|
口口口口 |③-④-|
①③⑦⑤ |⑤-⑥-|
②④⑧⑥ |⑦-⑧-|
14
口口⑤口 |①--②|
③口①④ |--③-|
②口口口 |④---|
口口口口 |⑤---|
15
口口口口 |①---|
口①②口 |--②③|
口①③口 |④---|
⑤口④口 |--⑤-|
16
③口口② |①---|
口口口口 |②---|
④口口① |③---|
口口口口 |④---|
17
口口口口 |①---|
⑥②③口 |--②-|
④口口⑤ |③-④-|
口①①口 |⑤-⑥-|
18
口口口口 |①---|
口③③① |--②-|
口⑤口口 |③--④|
口④②口 |--⑤-|
19
④①①④ |①--②|
⑤口③口 |--③-|
口口②⑤ |④---|
口口口口 |--⑤-|
20
口口口③ |①---|
④①口口 |--②-|
口口①⑤ |③--④|
口②口口 |--⑤-|
21
口口口口 |①---|
口②②口 |----|
口口口口 |----|
①口口① |②---|
22
口口口口 |①---|
口口口② |--②-|
口口口口
口①①口

口口口口
③口口口
口④口口 |--③-|
口口⑤口 |④-⑤-|
23
①①①① |①---|
⑤②③⑤ |--②③|
④口口④ |④---|
口口口口 |⑤---|
24
口口口口 |①---|
口口口口 |----|
口口口口
①①①①

口口口口
口口口口
口口口口 |----|
口②②口 |②---|
25
口④③口 |①---|
①③④② |②---|
口口口口 |③---|
口口口口 |④---|
26
口口口① |①---|
口②口口 |--②③|
①口③口 |④---|
口④口口 |----|
27
口口口口 |①---|
②口口④ |②---|
口口口口 |③---|
①口口③ |④---|
28
①口口① |①--②|
口④④口 |--③-|
口口③口 |④---|
口②口口 |----|
29
口⑥口口 |①---|
口⑤④口 |--②-|
口①③口 |③-④-|
口②①口 |⑤-⑥-|
30
②口口② |①--②|
①④④① |--③-|
③口口③ |④---|
口口口口 |----|
31
①①①① |①---|
⑤②③⑤ |--②③|
④口口④ |④---|
口口口口 |⑤---|
32
口口口口 |①---|
口②口口 |----|
口口口口 |----|
①①①① |②---|
33
口口口口 |①---|
口口①口 |----|
口口口口
口口口口

口口口口
口④④口
口③③口 |②--③|
口②②口 |--④-|
34
口③③口 |①--②|
口口口口 |--③-|
①④④② |④---|
口口口口 |----|
35
①口口④ |①--②|
口②⑤口 |--③-|
口口③口 |④--⑤|
口口⑥口 |--⑥-|
36
口口口口 |①---|
①口口① |--②-|
口口口口
口②口口

口口口口
⑤口口⑤
④口③④ |③--④|
口口口口 |--⑤-|
37
②①①② |①---|
口口口口 |----|
口口口口 |----|
口口口口 |②---|
38
口①②口 |①---|
③②①④ |②---|
④口口③ |③---|
口口口口 |④---|
39
口⑤④口 |①-②-|
口③⑥口 |③-④-|
口⑦②口 |⑤-⑥-|
口①⑧① |⑦-⑧-|
40
口⑤④口 |①-②-|
口③⑥口 |③-④-|
口⑦②口 |⑤-⑥-|
口①⑧口 |⑦-⑧-|
41
口口口口 |①---|
②口口④ |②---|
口口口口 |③---|
①口口③ |④---|
42
口①②口 |①-②-|
口③④口 |③-④-|
⑤口口⑤ |⑤---|
口口口口 |----|
43
①②③④ |①-②-|
⑧⑦⑥⑤ |③-④-|
口口口口 |⑤-⑥-|
口口口口 |⑦-⑧-|
44
口口口口 |①---|
口③口③ |②---|
①口①口 |③---|
口②口② |----|
45
口口口口 |①-②-|
口口口口 |③-④-|
①②⑥⑤ |⑤-⑥-|
④③⑦⑧ |⑦-⑧-|
46
①⑤⑥② |①-②-|
③⑦⑧④ |③-④-|
口口口口 |⑤-⑥-|
口口口口 |⑦-⑧-|
47
③口口③ |①-②-|
口口口口 |③---|
④口②④ |④---|
口①口口 |----|
48
口②②口 |①---|
口①①⑤ |--②-|
③④口口 |--③-|
口口口口 |④-⑤-|
49
①口口① |①---|
⑤②③⑤ |--②③|
④口口④ |④---|
口口口口 |⑤---|
50
口口口口 |①---|
口口口口 |----|
口口口口 |----|
①②②① |②---|
51
口④③口 |①---|
①③④② |②---|
口口口口 |③---|
口口口口 |④---|
52
口口口① |①---|
口②口口 |--②③|
①口③口 |④---|
口④口口 |----|
53
口口口口 |①---|
②口口④ |②---|
口口口口 |③---|
①口口③ |④---|
54
①口口① |①--②|
口④④口 |--③-|
口口③口 |④---|
口②口口 |----|
55
口⑥口口 |①---|
口⑤④口 |--②-|
口①③口 |③-④-|
口②①口 |⑤-⑥-|
56
②口口② |①--②|
①④④① |--③-|
③口口③ |④---|
口口口口 |----|
57
①①①① |①---|
⑤②③⑤ |--②③|
④口口④ |④---|
口口口口 |⑤---|
58
口口口口 |①---|
口口口口 |----|
口口口口
①①①①

口口口口
口口口口
口口③口 |----|
口②口口 |②-③-|
59
口口口口 |①---|
②①①② |--②-|
口口口口
口口口口

口口口口
口口⑤口
口④④口 |③--④|
口③③口 |--⑤-|
60
口③③口 |①--②|
②口口② |--③-|
①④④① |④---|
口口口口 |----|
61
①口口④ |①--②|
口②⑤口 |--③-|
口口③口 |④--⑤|
口口⑥口 |--⑥-|
62
口口口口 |①---|
①口口① |--②-|
口口口口
口②口口

口口口口
⑤口口⑤
④口③④ |③--④|
口口口口 |--⑤-|
63
①①①① |①---|
口口口口 |----|
口口口口
口口口口

②口口②
口口口口
口口口口 |----|
口口口口 |②---|
64
口①②口 |①---|
③②①④ |②---|
④口口③ |③---|
口口口口 |④---|
65
口④⑤口 |①---|
口⑥③口 |--②-|
口②口口 |③-④-|
①①①① |⑤-⑥-|
66
④口口④ |①---|
③口口③ |②---|
②口口② |③---|
口①①口 |④---|
67
口④⑤口 |①---|
口⑥③口 |--②-|
口②口口 |③-④-|
①①①① |⑤-⑥-|
68
④口口④ |①---|
③口口③ |②---|
②口口② |③---|
口①①口 |④---|
69
口④⑤口 |①---|
口⑥③口 |--②-|
口②口口 |③-④-|
①①①① |⑤-⑥-|
70
④口口④ |①---|
③口口③ |②---|
②口口② |③---|
口①①口 |④---|
71
口口口口 |①---|
口口口口 |----|
口口口口 |----|
①①①① |----|

最終更新:2012年11月06日 22:04