bass 2 bass
Ryu☆

ADVANCED

Level: 6
BPM: 140
Notes: 371

1
口口口口 |----|
口口口口 |----|
口口口口 |----|
口口口口 |----|
2
⑩④⑤⑪ |①-②-|
口⑥⑦口 |③-④⑤|
③⑧口口 |⑥⑦⑧-|
①⑨⑨② |⑨-⑩⑪|
3
口口口口 |①-②-|
口③⑥④ |③-④-|
①⑦②口 |--⑤-|
口口⑤口 |⑥-⑦-|
4
口①口口 |①-②-|
②③口口 |③-④-|
口口④⑤ |⑤---|
口口口口 |----|
5
口口①口 |①-②-|
口⑦②口 |③-④-|
口③⑥⑤ |--⑤-|
口④口口 |⑥-⑦-|
6
⑥口口⑤ |①-②-|
①口④口 |③-④-|
②③口口 |--⑤-|
口口口口 |--⑥-|
7
口口口口 |①-②-|
口③⑥④ |③-④-|
①⑦②口 |--⑤-|
口口⑤口 |⑥-⑦-|
8
口①口口 |①-②-|
②③口口 |③-④-|
口口④⑤ |⑤---|
口口口口 |----|
9
口口口口 |①-②-|
①②⑦口 |③-④-|
口⑥③④ |--⑤-|
口口⑤口 |⑥-⑦-|
10
①口②口 |--①-|
口③口口 |②-③-|
⑥口④⑥ |④-⑤-|
口⑤口口 |--⑥-|
11
口口口口 |--①-|
②②①① |----|
口口口口 |--②-|
口口口口 |----|
12
口口⑤⑤ |①--②|
口口④④ |--③-|
①②③口 |--④-|
口口口口 |-⑤--|
13
口口口口 |①--②|
口③口口 |--③-|
口②④⑤ |--④-|
口①④⑤ |-⑤--|
14
口口口口 |①--②|
口③②① |--③-|
⑤⑤口口 |--④-|
④④口口 |-⑤--|
15
口口口口 |①--②|
①②③口 |--③-|
口口④④ |--④-|
口口口口 |----|
16
口口口口 |①--②|
口③⑤⑤ |--③-|
口②④④ |--④-|
口①口口 |-⑤--|
17
③口口口 |①--②|
②口口口 |--③-|
①口④④ |--④-|
口口⑤⑤ |-⑤--|
18
口口口口 |①--②|
口③②① |--③-|
⑤⑤口口 |--④-|
④④口口 |-⑤--|
19
②②口口 |①---|
口口①① |②---|
④④口口 |③---|
口口③③ |④---|
20
口⑥⑤④ |①---|
③③口口 |②---|
口口②② |③---|
①①口口 |④-⑤⑥|
21
口口口口 |①-②-|
口③⑥④ |③-④-|
①⑦②口 |--⑤-|
口口⑤口 |⑥-⑦-|
22
口①口口 |①-②-|
②③口口 |③-④-|
口口④⑤ |⑤---|
口口口口 |----|
23
口口①口 |①-②-|
口⑦②口 |③-④-|
口③⑥⑤ |--⑤-|
口④口口 |⑥-⑦-|
24
⑥口口⑤ |①-②-|
①口④口 |③-④-|
②③口口 |--⑤-|
口口口口 |--⑥-|
25
口口口口 |①-②-|
口③⑥④ |③-④-|
①⑦②口 |--⑤-|
口口⑤口 |⑥-⑦-|
26
口①口口 |①-②-|
②③口口 |③-④-|
口口④⑤ |⑤---|
口口口口 |----|
27
口口口口 |①-②-|
①②⑦口 |③-④-|
口⑥③④ |--⑤-|
口口⑤口 |⑥-⑦-|
28
①口②口 |--①-|
口③口口 |②-③-|
⑥口④⑥ |④-⑤-|
口⑤口口 |--⑥-|
29
口口口口 |--①-|
②②①① |----|
口口口口 |--②-|
口口口口 |----|
30
口口⑤⑤ |①--②|
口口④④ |--③-|
①②③口 |--④-|
口口口口 |-⑤--|
31
口口口口 |①--②|
口③口口 |--③-|
口②④⑤ |--④-|
口①④⑤ |-⑤--|
32
口口口口 |①--②|
口③②① |--③-|
⑤⑤口口 |--④-|
④④口口 |-⑤--|
33
口口口口 |①--②|
①②③口 |--③-|
口口④④ |--④-|
口口口口 |----|
34
口口口口 |①--②|
口③⑤⑤ |--③-|
口②④④ |--④-|
口①口口 |-⑤--|
35
③口口口 |①--②|
②口口口 |--③-|
①口④④ |--④-|
口口⑤⑤ |-⑤--|
36
口口口口 |①--②|
口③②① |--③-|
⑤⑤口口 |--④-|
④④口口 |-⑤--|
37
②②⑥⑤ |①---|
口口①① |②---|
④④口口 |③---|
口口③③ |④-⑤⑥|
38
口⑩⑨⑧ |①-②-|
⑤①口口 |③④⑤⑥|
⑥⑦③④ |⑦---|
口②口口 |⑧-⑨⑩|
39
口口口口 |①--②|
口③②① |--③-|
口④⑤口 |--④-|
口口⑥口 |⑤-⑥-|
40
口⑥⑤④ |①--②|
口口口③ |--③-|
口口口② |--④-|
口口口① |⑤-⑥-|
41
①口口口 |①--②|
②③口口 |--③-|
口④口口 |--④-|
口⑤⑥口 |⑤-⑥-|
42
口④③口 |①--②|
⑥⑤②口 |--③-|
口口①口 |--④-|
口口口口 |⑤-⑥-|
43
口口口口 |①--②|
口口⑥⑤ |--③-|
①②③④ |--④-|
口口口口 |⑤-⑥-|
44
③②①口 |①--②|
④口口口 |--③-|
⑤⑥口口 |--④-|
口口口口 |⑤-⑥-|
45
口口口口 |①--②|
口①②③ |--③-|
口口口④ |--④-|
口口⑥⑤ |⑤-⑥-|
46
②②口口 |①-②-|
①①口口 |③④⑤⑥|
口口⑤⑥
③④口口

⑬⑫口⑪
口口⑨⑩
⑦⑧口口 |⑦⑧⑨⑩|
口口口口 |⑪-⑫⑬|
47
④④口口 |--①-|
口口③③ |--②-|
口口②② |--③-|
口口①① |--④-|
48
口口口口 |①-②-|
口③⑥④ |③-④-|
①⑦②口 |--⑤-|
口口⑤口 |⑥-⑦-|
49
口①口口 |①-②-|
②③口口 |③-④-|
口口④⑤ |⑤---|
口口口口 |----|
50
口口①口 |①-②-|
口⑦②口 |③-④-|
口③⑥⑤ |--⑤-|
口④口口 |⑥-⑦-|
51
⑥口口⑤ |①-②-|
①口④口 |③-④-|
②③口口 |--⑤-|
口口口口 |--⑥-|
52
口口口口 |①-②-|
口③⑥④ |③-④-|
①⑦②口 |--⑤-|
口口⑤口 |⑥-⑦-|
53
口①口口 |①-②-|
②③口口 |③-④-|
口口④⑤ |⑤---|
口口口口 |----|
54
口口口口 |①-②-|
①②⑦口 |③-④-|
口⑥③④ |--⑤-|
口口⑤口 |⑥-⑦-|
55
①口②口 |--①-|
口③口口 |②-③-|
⑥口④⑥ |④-⑤-|
口⑤口口 |--⑥-|
56
口①①口 |①---|
口口口口 |----|
口口口口 |----|
口口口口 |----|


不确定度: 0

最終更新:2012年11月11日 17:02