bass 2 bass
Ryu☆

EXTREME

Level: 8
BPM: 140
Notes: 573

1
口口口口 |----|
口口口口 |----|
口口口口 |----|
口口口口 |----|
2
④⑤口口 |①-②-|
口口③口 |③-④⑤|
口②口口
口①②口

口口口口
⑥⑦口口
⑧口⑩⑪ |⑥⑦⑧-|
口⑨口口 |⑨-⑩⑪|
3
④②④① |①-②-|
口③①口 |③-④-|
口②口口
口口③口

口⑦口口
⑦口⑥口
⑤口口⑥ |--⑤-|
⑤口口口 |⑥-⑦-|
4
②口④口 |①-②-|
口②口④ |③-④-|
口⑤③口 |⑤---|
⑤③①① |----|
5
口口④口 |①-②-|
①②③口 |③-④-|
口④①②
口③口口

口⑤口口
⑦口口⑤
⑥口⑦口 |--⑤-|
口口⑥口 |⑥-⑦-|
6
④④②口 |①-②-|
口①③⑥ |③-④-|
⑥②⑤① |--⑤-|
口③口⑤ |--⑥-|
7
④②④① |①-②-|
口③①口 |③-④-|
口②口口
口口③口

口⑦口口
⑦口⑥口
⑤口口⑥ |--⑤-|
⑤口口口 |⑥-⑦-|
8
②口④口 |①-②-|
口②口④ |③-④-|
口⑤③口 |⑤---|
⑤③①① |----|
9
口口④口 |①-②-|
①②③口 |③-④-|
口④①②
口③口口

口⑤口口
⑦口口⑤
⑥口⑦口 |--⑤-|
口口⑥口 |⑥-⑦-|
10
③口②口 |①-②-|
口口口④ |③-④-|
口口口口
口①口口

口⑦⑦口
口口口口
⑤口口口 |⑤-⑥-|
口口口⑥ |--⑦-|
11
口口口④ |①-②-|
⑤⑥②口 |③④⑤⑥|
口③①口
口口口口

⑨⑩口口
口口⑫⑪
口口口⑦ |⑦-⑧-|
口⑧口口 |⑨⑩⑪⑫|
12
⑥⑦③口 |①-②③|
④⑧口口 |-④--|
②⑨①口 |⑤-⑥⑦|
⑤口口口 |⑧-⑨-|
13
口口⑦口 |--①②|
口⑤②① |③-④-|
③⑥口⑨ |⑤-⑥-|
口口④⑧ |⑦-⑧⑨|
14
⑬⑥口⑧ |①②③④|
②⑤④⑦ |⑤⑥⑦⑧|
①⑩③⑫ |⑨⑩⑪⑫|
口⑨口⑪ |⑬---|
15
口①②口 |①②③④|
口③⑤④ |⑤-⑥-|
⑥⑥口口
口口口口

⑧⑨⑩口
口口口口
口口口口 |⑦-⑧⑨|
口口⑦⑦ |⑩---|
16
⑩⑬⑧口 |①②③④|
⑨⑭⑦④ |⑤⑥⑦⑧|
⑥②⑫③ |⑨⑩⑪⑫|
⑤①⑪口 |⑬-⑭-|
17
口口口④ |①-②-|
口口口口 |③--④|
口①口口
③②口口

⑥⑦⑤口
口口⑨口
口⑧口口 |⑤⑥⑦-|
口口口口 |⑧-⑨-|
18
口口口④ |----|
口口口③ |①-②-|
口口口② |③-④-|
口口口① |----|
19
①②口口 |①②③④|
③④口口 |⑤⑥⑦⑧|
⑤⑥口口
⑦⑧口口

⑫⑬口口
⑭口⑪⑪
口口口口 |⑨⑩-⑪|
口口⑨⑩ |-⑫⑬⑭|
20
口口口口 |①②-③|
⑨①口⑧ |-④⑤-|
②口⑥⑦ |⑥⑦⑧-|
口③④⑤ |⑨---|
21
④②④① |①-②-|
口③①口 |③-④-|
口②口口
口口③口

口⑦口口
⑦口⑥口
⑤口口⑥ |--⑤-|
⑤口口口 |⑥-⑦-|
22
②口④口 |①-②-|
口②口④ |③-④-|
口⑤③口 |⑤---|
⑤③①① |----|
23
口口④口 |①-②-|
①②③口 |③-④-|
口④①②
口③口口

口⑤口口
⑦口口⑤
⑥口⑦口 |--⑤-|
口口⑥口 |⑥-⑦-|
24
④④②口 |①-②-|
口①③⑥ |③-④-|
⑥②⑤① |--⑤-|
口③口⑤ |--⑥-|
25
④②④① |①-②-|
口③①口 |③-④-|
口②口口
口口③口

口⑦口口
⑦口⑥口
⑤口口⑥ |--⑤-|
⑤口口口 |⑥-⑦-|
26
②口④口 |①-②-|
口②口④ |③-④-|
口⑤③口 |⑤---|
⑤③①① |----|
27
口口④口 |①-②-|
①②③口 |③-④-|
口④①②
口③口口

口⑤口口
⑦口口⑤
⑥口⑦口 |--⑤-|
口口⑥口 |⑥-⑦-|
28
③口②口 |①-②-|
口口口④ |③-④-|
口口口口
口①口口

口⑦⑦口
口口口口
⑤口口口 |⑤-⑥-|
口口口⑥ |--⑦-|
29
口口口⑥ |①②-③|
⑦④口⑤ |④⑤⑥-|
口③②⑧ |⑦-⑧-|
口口①⑨ |--⑨-|
30
口口④口 |①-②-|
口③口⑤ |③-④-|
②⑥①口 |⑤-⑥-|
⑦口⑧口 |⑦-⑧-|
31
口口口口 |①-②-|
口②口口 |③-④-|
③口口①
口④口口

口口口口
口口口⑦
口口口⑥ |--⑤-|
口口口⑤ |⑥-⑦-|
32
口⑦口① |①--②|
②③口口 |--③-|
口⑥⑤④ |④⑤⑥-|
口口口口 |-⑦--|
33
⑧口⑥⑦ |①-②-|
口口③④ |③④--|
②⑤口口 |⑤-⑥⑦|
①口口口 |--⑧-|
34
口⑦口口 |①-②-|
①⑥口口 |③-④-|
②⑤口口 |⑤-⑥-|
③④口口 |⑦---|
35
口口口④ |①-②-|
⑤⑥口③ |③-④-|
口⑦⑦② |⑤⑥-⑦|
⑧口口① |--⑧-|
36
口口口口 |①-②-|
⑤⑥口口 |③-④-|
口⑦⑦④ |⑤⑥-⑦|
口①②③ |----|
37
口口口① |①-②-|
④口⑦口 |③④-⑤|
③口⑥② |-⑥-⑦|
⑧⑧⑤口 |--⑧-|
38
⑥④⑤⑥ |①-②-|
口⑥⑥口 |③-④-|
①①③③ |⑤---|
口口②② |⑥---|
39
口⑤口口 |①--②|
③口⑥① |--③-|
口②①④ |--④-|
口口口① |⑤-⑥-|
40
口口口口 |①--②|
口口口口 |--③-|
口①口口
③口口②

口④口口
口口口口
口⑥口⑤ |--④-|
口口口口 |⑤-⑥-|
41
②口口③ |①--②|
口⑥口⑤ |--③-|
口口口口 |--④-|
口④①口 |⑤-⑥-|
42
口口口口 |①--②|
②口口口 |--③-|
口口①③
口口口口

口口口口
⑥口口口
⑤口口口 |--④-|
口口口④ |⑤-⑥-|
43
⑪②③① |①-②③|
⑩④⑤口 |④⑤⑥⑦|
⑨⑥⑦口 |⑧-⑨-|
⑧口口口 |⑩-⑪-|
44
口⑧⑧④ |①-②-|
口⑦⑦③ |③-④-|
口⑥⑥② |⑤-⑥-|
口⑤⑤① |⑦-⑧-|
45
③④⑦⑥ |--①-|
①⑤⑧② |②---|
①口口② |③④⑤-|
口口口口 |⑥⑦⑧-|
46
④口口⑤ |--①②|
口口口口 |③-④⑤|
口口②①
口口③口

口口口口
口⑥⑦口
⑧⑨⑪⑪ |⑥⑦⑧⑨|
口⑩口口 |⑩-⑪-|
47
②口①口 |--①-|
口②口① |--②-|
④口③口 |--③-|
口④口③ |--④-|
48
④②④① |①-②-|
口③①口 |③-④-|
口②口口
口口③口

口⑦口口
⑦口⑥口
⑤口口⑥ |--⑤-|
⑤口口口 |⑥-⑦-|
49
②口④口 |①-②-|
口②口④ |③-④-|
口⑤③口 |⑤---|
⑤③①① |----|
50
口口④口 |①-②-|
①②③口 |③-④-|
口④①②
口③口口

口⑤口口
⑦口口⑤
⑥口⑦口 |--⑤-|
口口⑥口 |⑥-⑦-|
51
④④②口 |①-②-|
口①③⑥ |③-④-|
⑥②⑤① |--⑤-|
口③口⑤ |--⑥-|
52
④②④① |①-②-|
口③①口 |③-④-|
口②口口
口口③口

口⑦口口
⑦口⑥口
⑤口口⑥ |--⑤-|
⑤口口口 |⑥-⑦-|
53
②口④口 |①-②-|
口②口④ |③-④-|
口⑤③口 |⑤---|
⑤③①① |----|
54
口口④口 |①-②-|
①②③口 |③-④-|
口④①②
口③口口

口⑤口口
⑦口口⑤
⑥口⑦口 |--⑤-|
口口⑥口 |⑥-⑦-|
55
③口②口 |①-②-|
口口口④ |③-④-|
口口口口
口①口口

口⑦⑦口
口口口口
⑤口口口 |⑤-⑥-|
口口口⑥ |--⑦-|
56
①口口① |①---|
口①①口 |----|
口口口口 |----|
口口口口 |----|


不确定度: 0

最終更新:2012年11月11日 17:02