あいのうた
肥塚良彦

BASIC

Level: 3
BPM: 130
Notes: 174

1
口口口口 |----|
口口口口 |----|
口口口口 |----|
口口口口 |----|
2
口口口口 |①---|
口口口口 |----|
①口口口 |----|
口口口口 |----|
3
口口口口 |①---|
口口口口 |----|
口②①口 |②---|
口口口口 |----|
4
口口口口 |①---|
口口口口 |----|
①口口口 |----|
口口口口 |----|
5
口口口口 |①---|
口口口口 |----|
口①②口 |②---|
口口口口 |----|
6
口口口口 |①---|
口口口口 |----|
口口口① |----|
口口口口 |----|
7
口口口口 |①---|
口口口口 |----|
口②①口 |②---|
口口口口 |----|
8
口口口口 |①---|
口口口口 |----|
口口口① |----|
口口口口 |----|
9
口口口口 |①---|
口口口口 |----|
口①②口 |②---|
口口口口 |----|
10
口口口口 |①---|
口口口口 |②---|
口口口口 |③---|
①②③口 |----|
11
口口口口 |①---|
口口口口 |----|
口①①口 |----|
口口口口 |----|
12
口口口口 |①---|
口口口口 |②---|
口口口口 |③---|
口③②① |----|
13
口口口口 |①---|
口①①口 |----|
口②②口 |②---|
口口口口 |----|
14
口口口口 |①---|
口口口口 |②---|
口口口口 |③---|
①②③口 |----|
15
口口口口 |①---|
口口口口 |②---|
口口口口 |③---|
口③②① |----|
16
口口口口 |①---|
口口口口 |②---|
口口口口 |③---|
①②③口 |----|
17
口口口口 |①---|
口口口口 |----|
口②①口 |②---|
口口口口 |----|
18
口口口口 |①---|
③口口口 |②---|
②口口口 |③---|
①口口口 |----|
19
口口口口 |①---|
口①①口 |----|
口口口口 |----|
口口口口 |----|
20
口口口口 |①---|
口口口③ |②---|
口口口② |③---|
口口口① |----|
21
口口口口 |①---|
口①①口 |----|
口②②口 |②---|
口口口口 |----|
22
口口口口 |①---|
③口口口 |②---|
②口口口 |③---|
①口口口 |----|
23
口口口口 |①---|
口口口③ |②---|
口口口② |③---|
口口口① |----|
24
口口口口 |①---|
口口口口 |②---|
口③④口 |③---|
口①②口 |④---|
25
口口口口 |①---|
③①②口 |②---|
口口口口 |----|
口口口口 |③---|
26
口口口④ |①---|
口①②③ |②---|
口口口口 |③---|
口口口口 |④---|
27
③②①口 |①---|
④口口口 |②---|
口口口口 |③---|
口口口口 |④---|
28
口口口口 |①---|
口①②口 |----|
口口口口 |②---|
口口口口 |----|
29
口口口口 |①---|
②口口① |----|
口口口口 |----|
口口口口 |②---|
30
口口口④ |①---|
口①②③ |②---|
口口口口 |③---|
口口口口 |④---|
31
③②①口 |①---|
④口口口 |②---|
口口口口 |③---|
口口口口 |④---|
32
口口口口 |①---|
口口②① |----|
口口口口 |②---|
口口口口 |----|
33
口口口口 |①---|
口①口口 |----|
口口口口 |----|
口口口口 |----|
34
口口口口 |①---|
口④③口 |②---|
口①②口 |③---|
口口口口 |④---|
35
口口口口 |①---|
口口口口 |----|
口①口口 |----|
口口口口 |----|
36
口口口口 |①---|
口③④口 |②---|
口②①口 |③---|
口口口口 |④---|
37
口口口口 |①---|
口口口口 |----|
口口①口 |----|
口口口口 |----|
38
口口口口 |①---|
口口口口 |②---|
口②①口 |----|
口口口口 |----|
39
口口口口 |①---|
①②③④ |②---|
口口口口 |③---|
口口口口 |④---|
40
口①①口 |①---|
口口口口 |----|
口②②口 |②---|
口口口口 |----|
41
口口口口 |①---|
口口口口 |②---|
口口口口 |③---|
①②③④ |④---|
42
口口口口 |①---|
口口口① |----|
口口口口 |----|
口口口口 |----|
43
③④②① |①---|
⑤口口口 |②-③-|
口口口口 |--④-|
口口口口 |--⑤-|
44
口口口口 |--①-|
③①②口 |②---|
口口口口 |----|
口口口口 |--③-|
45
口口口口 |--①-|
口①②口 |②---|
口口口口 |----|
口口口口 |----|
46
口口③口 |①-②-|
①②口④ |-③--|
口口口口 |④---|
口口口口 |----|
47
口口③口 |①-②-|
①②口④ |-③--|
口口口口 |④---|
口口口口 |----|
48
口口口口 |①-②-|
口口③口 |-③--|
①②口④ |④---|
口口口口 |----|
49
口口口口 |①-②-|
口口③口 |-③--|
①②口④ |④---|
口口口口 |----|
50
口口口口 |①---|
口口口① |----|
口口口口 |----|
口口口口 |----|
51
③④②① |①---|
⑤口口口 |②-③-|
口口口口 |--④-|
口口口口 |--⑤-|
52
③口口口 |--①-|
口①②口 |②---|
口口口口 |----|
口口口口 |--③-|
53
口②①口 |--①-|
口口口口 |②---|
口口口口 |----|
口口口口 |----|
54
口口口口 |----|
口口口口 |①---|
②①①② |----|
口口口口 |②---|
55
口口口口 |----|
口②②口 |①---|
口①①口 |----|
口口口口 |②---|
56
口口④口 |①---|
口口③口 |②---|
口口②口 |③---|
口口①口 |④---|
57
口口②① |①---|
口口口口 |----|
口口口口 |②---|
口口口口 |----|
58
③④口口 |①---|
②①口口 |②---|
口口口口 |③---|
口口口口 |④---|
59
口口①② |①---|
口口口口 |----|
口口口口 |②---|
口口口口 |----|
60
口口口口 |--①-|
口③④口 |②---|
口①②口 |③---|
口口口口 |④---|
61
口②①口 |①-②-|
口口口口 |----|
口口口口
口口口口

③口④⑤
口口口口
口口口口 |③---|
口口口口 |④-⑤-|


不确定度: 0

最終更新:2012年11月11日 17:01