あいのうた
肥塚良彦

ADVANCED

Level: 4
BPM: 130
Notes: 317

1
口口口口 |----|
口口口口 |----|
口口口口 |----|
口口口口 |----|
2
口口口口 |①---|
口④口口 |②---|
①②③口 |③---|
口口口口 |④---|
3
口口口口 |①---|
口口④口 |②---|
①②③口 |③---|
口口口口 |④---|
4
口口口口 |①---|
口④口口 |②---|
①②③口 |③---|
口口口口 |④---|
5
口口口口 |①---|
口口④口 |②---|
①②③口 |③---|
口口口口 |④---|
6
口口口口 |①---|
口④口口 |②---|
口③②① |③---|
口口口口 |④---|
7
口口口口 |①---|
口口④口 |②---|
口③②① |③---|
口口口口 |④---|
8
口口口口 |①---|
口④口口 |②---|
口③②① |③---|
口口口口 |④---|
9
口口口口 |①---|
口口④口 |②---|
口③②① |③---|
口口口口 |④---|
10
口口口口 |①---|
口④④口 |②---|
①②③口 |③---|
口口口口 |④---|
11
口口口口 |①---|
口④④口 |②---|
①②③口 |③---|
口口口口 |④---|
12
口口口口 |①---|
口④④口 |②---|
口③②① |③---|
口口口口 |④---|
13
口口口口 |①---|
口④④口 |②---|
口③②① |③---|
口口口口 |④---|
14
口口口口 |①---|
口④口口 |②---|
②口口口 |③---|
①③口口 |④---|
15
口口口口 |①---|
口口④口 |②---|
口口口② |③---|
口口③① |④---|
16
口口口口 |①---|
①④④口 |②---|
②口口口 |③---|
口③③口 |④---|
17
口口口口 |①---|
口④④① |②---|
口口口② |③---|
口③③口 |④---|
18
口口口口 |①---|
口④④口 |②---|
口口口口 |③---|
①②③口 |④---|
19
口口口口 |①---|
口④④口 |②---|
口口口口 |③---|
口③②① |④---|
20
口口口口 |①---|
口④④口 |②---|
口口口口 |③---|
①②③口 |④---|
21
口口口口 |①---|
口④④口 |②---|
口口口口 |③---|
口③②① |④---|
22
口口口口 |①---|
口④④口 |②---|
口②口口 |③---|
①口③口 |④---|
23
口口口口 |①---|
口④④口 |②---|
口口②口 |③---|
口③口① |④---|
24
口口口口 |①---|
口④④口 |②---|
口②口口 |③---|
①口③口 |④---|
25
口口口口 |①---|
①口口① |②---|
②口口②
口口口口

③口口③
④⑤口口
口口口口 |③---|
口口口口 |④-⑤-|
26
口口③④ |①---|
口口①② |②---|
口口口口 |③---|
口口口口 |④---|
27
口③②口 |①---|
④口①口 |②---|
口口口口 |③---|
口口口口 |④---|
28
口③②口 |①---|
④⑤口① |--②-|
口口口口 |③---|
口口口口 |④-⑤-|
29
口口口口 |----|
③④口口 |①---|
②①①② |②---|
口口口口 |③-④-|
30
口口③④ |①---|
口口①② |②---|
口口口口 |③---|
口口口口 |④---|
31
口③②口 |①---|
④口①口 |②---|
口口口口 |③---|
口口口口 |④---|
32
口口②口 |①---|
口口①口 |--②-|
口口口口
口口口口

口③口④
口口⑤口
口口口口 |③---|
口口口口 |④-⑤-|
33
口③③口 |----|
口②②口 |①---|
口①①口 |②---|
口口口口 |③---|
34
口口口口 |①-②-|
口⑤⑥⑦ |③-④-|
①②③④ |⑤---|
口口口口 |⑥-⑦-|
35
口口口口 |----|
口②③口 |①---|
口①①口 |②---|
口口口口 |③---|
36
口口口口 |①-②-|
口⑦⑥⑤ |③-④-|
①②③④ |⑤---|
口口口口 |⑥-⑦-|
37
口口口③ |----|
口口口口 |①---|
②①①② |②---|
口口口口 |--③-|
38
口⑤口口 |①-②-|
④③②① |③-④-|
口口口口 |----|
口口口口 |--⑤-|
39
①口③② |①-②-|
⑤④口⑥ |③-④-|
口口口口 |⑤---|
口口口口 |⑥---|
40
⑤口口口 |①---|
④口①口 |----|
③口口口 |②-③-|
②口口口 |④-⑤-|
41
口⑧⑧① |①-②-|
口⑦⑦② |③-④-|
口⑥⑥③ |⑤-⑥-|
口⑤⑤④ |⑦-⑧-|
42
口口口口 |①---|
口口口① |②---|
口口口口 |③---|
口②③④ |④---|
43
③④②① |①---|
⑤口口口 |②-③-|
口口口口 |--④-|
口口口口 |--⑤-|
44
③口口口 |--①-|
口①②口 |②---|
口口口口 |----|
口口口口 |--③-|
45
口①②口 |--①-|
口③③口 |②---|
口口口口 |----|
口口口口 |③---|
46
口口口口 |①-②-|
口⑤⑤④ |-③--|
口口③口 |④---|
①②口口 |⑤---|
47
口口口口 |①-②-|
④⑤⑤口 |-③--|
口③口口 |④---|
口口②① |⑤---|
48
④口口④ |①-②-|
③⑤⑤③ |-③--|
口口口口 |④---|
②①①② |⑤---|
49
①②②① |--①-|
口④③口 |-②--|
口⑤⑤口 |③-④-|
口口口口 |⑤---|
50
口口口口 |①---|
口口口① |②---|
口口口口 |③---|
口②③④ |④---|
51
③④②① |①---|
⑤口口口 |②-③-|
口口口口 |--④-|
口口口口 |--⑤-|
52
③口口口 |--①-|
口①②口 |②---|
口口口口 |----|
口口口口 |--③-|
53
口②①口 |--①-|
口口口口 |②---|
③口口③ |----|
口口口口 |③---|
54
②②②② |----|
②①①② |①---|
口①①口 |----|
口口口口 |②---|
55
口口口口 |----|
口②②口 |①---|
口①①口 |②---|
口口口口 |----|
56
④⑤⑥口 |①---|
口③③口 |②---|
口②②口 |③-④-|
口①①口 |⑤-⑥-|
57
口②②① |①---|
口口口口 |----|
口口口口 |②---|
口口口口 |----|
58
③④⑤⑥ |①---|
②①①② |②---|
口口口口 |③-④-|
口口口口 |⑤-⑥-|
59
口口口口 |①---|
①②②① |----|
口口口口 |②---|
口口口口 |----|
60
口口口① |--①-|
口口②口 |②-③-|
口③口口 |④-⑤-|
④⑤⑥⑦ |⑥-⑦-|
61
③④⑤⑥ |①-②-|
口②口口 |----|
口口①口 |③-④-|
口口口口 |⑤-⑥-|


不确定度: 0

最終更新:2012年11月11日 17:00