あいのうた
肥塚良彦

EXTREME

Level: 7
BPM: 130
Notes: 590

1
口口口口 |----|
口口口口 |----|
口口口口 |----|
口口口口 |----|
2
口口口口 |①-②③|
口口⑥⑤ |④-⑤⑥|
②③④口
口①①口

⑩口口⑧
口⑦口口
口口口口 |⑦-⑧-|
口⑨⑨口 |⑨-⑩-|
3
口⑧⑩口 |①-②③|
口⑦⑥⑤ |④-⑤⑥|
②③④口 |⑦-⑧-|
①⑨⑨① |⑨-⑩-|
4
①口⑧① |①-②③|
⑩⑦⑥⑤ |④-⑤⑥|
②③④口 |⑦-⑧-|
口⑨⑨口 |⑨-⑩-|
5
②③④口 |①-②③|
口口口口 |④-⑤⑥|
①口口①
口口⑥⑤

⑨口口⑨
口⑧⑧口
口口口口 |⑦-⑧-|
口⑦口口 |⑨---|
6
口口口口 |①---|
①口口① |----|
口①①口 |----|
①②②① |②---|
7
①③③② |①---|
②①②① |----|
①②①② |②---|
②口口① |③---|
8
①口口口 |①---|
口①口① |----|
①口①口 |----|
口②②① |②---|
9
①口口① |①---|
口①①口 |----|
①口口①
口口口口

口③③口
②④④②
⑤②②⑤ |②-③-|
②口口② |④-⑤-|
10
④口②① |--①-|
⑤口口③ |②-③-|
⑥口口口 |④-⑤-|
口⑦口口 |⑥-⑦-|
11
口①①口 |----|
②口口② |----|
口③③口 |--①-|
口口口口 |②-③-|
12
①②口④ |--①-|
③⑦⑦⑤ |②-③-|
口口口⑥ |④-⑤-|
口口口口 |⑥-⑦-|
13
①口口口 |----|
②口口口 |----|
③口口口 |--①-|
口口口口 |②-③-|
14
口口①① |①---|
口口②口 |②--③|
口口③口
口口口口

⑦口口⑥
口口口口
口④口口 |④-⑤-|
⑤⑤口口 |⑥-⑦-|
15
口口口口 |----|
①①口口 |----|
口口口口 |----|
口口口口 |--①-|
16
④④口口 |①-②-|
口口口口 |③-④-|
①②③口
口口口口

口口口口
⑤⑥口口
口⑦⑦口 |--⑤-|
口口口口 |⑥-⑦-|
17
口口口① |----|
口口②① |----|
口③②口 |--①-|
口③口口 |②-③-|
18
②③④⑤ |--①-|
②③④⑤ |②-③-|
①⑥口口 |④-⑤-|
①口⑦口 |⑥-⑦-|
19
①口口口 |----|
①②口口 |----|
口②③口 |--①-|
口口③口 |②-③-|
20
⑤④③② |--①-|
⑤④③② |②-③-|
口⑥⑥① |④-⑤-|
口⑦⑦① |⑥-⑦-|
21
口口口口 |----|
口口口④ |----|
①②③口 |--①-|
①②③口 |②-③④|
22
③④④口 |①-②-|
②⑤①口 |③-④-|
口⑤⑥⑥ |⑤-⑥-|
口⑧⑦口 |⑦-⑧-|
23
①口口口 |----|
口口口口 |----|
①口口口 |----|
口口口口 |--①-|
24
口①②口 |①-②-|
口口④③ |③-④-|
口①②口
口口口口

口⑤口口
⑤⑥口口
口⑤⑥口 |--⑤-|
口⑥口口 |--⑥-|
25
①口口① |----|
口②②口 |----|
口口口口 |----|
口口口口 |①-②-|
26
④②②口 |①---|
口③③口 |②---|
④①①口 |③---|
口口口口 |④---|
27
口口口口 |①---|
②②口① |②---|
口口口口
口口口①

口口③口
口口④④
口口③口 |③---|
口口口口 |④---|
28
②口口口 |①---|
口口口口 |--②-|
口口口口
口①①口

口口口口
口口口③
口④口口 |③---|
口口⑤口 |④-⑤-|
29
①①口口 |----|
②②口口 |----|
口口口口 |----|
口口口口 |①-②-|
30
口口②② |①---|
口口③③ |②---|
①①④④ |③---|
口口口口 |④---|
31
口口③口 |①---|
②②④④ |②---|
口口③口 |③---|
口口①① |④---|
32
口③②口 |①---|
③⑥⑥② |--②-|
④⑥⑥⑤ |③-④-|
①④⑤① |⑤-⑥-|
33
口口口口 |----|
口口口口 |----|
口口口口 |----|
口口口口 |----|
34
①①②口 |①-②-|
④口③③ |③-④-|
③口④④
②②①口

⑥口口⑤
口⑥⑦口
口⑤口口 |⑤---|
口口⑦口 |⑥-⑦-|
35
口口口口 |----|
口口口口 |----|
口口口口 |----|
口口口口 |----|
36
口①②① |①-②-|
口②①② |③-④-|
③④③口
④③④口

⑤口⑦口
⑤⑦口口
口口⑦⑥ |⑤---|
口⑦口⑥ |⑥-⑦-|
37
①口口口 |----|
①口口口 |----|
口口口口 |----|
口口口口 |--①-|
38
⑤口⑤口 |①-②-|
⑤④③① |③-④-|
②④③① |----|
②口口口 |--⑤-|
39
口①口① |①-②-|
口④④① |③-④-|
③②③②
口②③口

⑤⑥⑤⑥
口口口口
口口口口 |⑤---|
口口口口 |⑥---|
40
口口口口 |①---|
①口口① |②---|
口①①口
②口口②

口口口口
④口口④
③口口③ |③---|
口口口口 |④---|
41
①口口① |①-②-|
口口④口 |③-④-|
口③口口
口口②口

口⑤口口
⑥口口口
口口口⑦ |⑤⑥⑦⑧|
⑨⑧⑩⑪ |⑨⑩⑪-|
42
口口口口 |①---|
口①①口 |----|
口①①口 |----|
口②②口 |②---|
43
①④④③ |①-②-|
①口口③ |③-④-|
①②②③
①口口③

⑦口口口
口口⑦口
口⑦口口 |⑤-⑥-|
口⑥⑤口 |--⑦-|
44
口口口① |--①-|
②①口② |②---|
口口①口
口②②口

口口口口
口③口口
口③口口 |----|
口口口③ |--③-|
45
口②②口 |--①-|
口口①口 |②---|
②口①②
①口口口

③口口③
口口口口
④口口④ |----|
口口口口 |③-④-|
46
口②②口 |--①-|
口口口口 |②---|
口①①口
口口口口

③⑤⑤③
口口口口
④口口④ |--③-|
口口口口 |④-⑤-|
47
④口口① |----|
①口口② |①-②-|
②口口③ |③-④-|
③口口④ |----|
48
④①口② |①-②-|
③口口口 |③-④-|
口口口③
②口①④

口⑥⑥口
口⑤⑤口
口⑥⑦口 |⑤-⑥-|
口⑦⑥口 |--⑦-|
49
口口口口 |--①-|
②①②① |-②--|
③口口③ |③④⑤⑥|
⑤④⑥⑦ |⑦---|
50
口口口口 |①---|
口①①口 |----|
口①①口 |----|
口②②口 |②---|
51
①④④③ |①-②-|
①口口③ |③-④-|
①②②③
①口口③

口口口⑦
口⑦口口
口口⑦口 |⑤-⑥-|
口⑤⑥口 |--⑦-|
52
①口口口 |--①-|
②口①② |②---|
口①口口
口②②口

口口口口
口口口口
③口口③ |----|
口③③口 |--③-|
53
①口口① |--①-|
②①①② |②---|
口②②口
②口口②

口口③口
口口口④
③口口口 |----|
口④口口 |③-④-|
54
③口口③ |①-②-|
口③③口 |③---|
口口②①
口口①②

口④④口
④口口④
⑤⑥⑤⑥ |--④-|
口⑤⑥口 |⑤-⑥-|
55
③③④⑤ |--①-|
②①①② |--②-|
④④口口 |③---|
④④口口 |--④⑤|
56
口口口口 |①-②③|
①①⑥① |④-⑤⑥|
口口②③
口口⑤④

口口⑦口
口口口⑧
口口⑨口 |⑦-⑧-|
口口口⑩ |⑨-⑩-|
57
②⑦⑧⑦ |①---|
①①④③ |②-③④|
⑤⑥⑤① |⑤-⑥-|
口口①口 |--⑦⑧|
58
口口口口 |①-②③|
口②口① |④---|
④口④③
口口口口

⑧口口⑤
口口⑦⑥
口口⑧口 |⑤-⑥-|
口口口口 |⑦-⑧-|
59
口③④⑤ |①-②-|
②口口口 |③--④|
口口口口 |⑤---|
口口①口 |----|
60
③口口① |--①②|
口⑤口口 |③④⑤⑥|
口②④口
口口⑥口

口口口⑭
⑨口⑦⑫
⑪口口⑩ |⑦⑧⑨⑩|
⑬⑧口⑬ |⑪⑫⑬⑭|
61
③②①口 |①②③-|
④⑦⑦⑤ |----|
口⑦⑦口 |④-⑤-|
口⑥⑥口 |⑥-⑦-|


不确定度: 0

最終更新:2012年11月11日 16:56