ウィリアム・テル序曲
W.T.Orchestra

ADVANCED

Level: 7
BPM: 120-190
Notes: 422

BPM: 120
1
口口口口 |----|
口口口口 |----|
口口口口 |----|
口口口口 |----|
2
口口口口 |①---|
口①口② |--②③|
口③⑥口 |④---|
⑤口口④ |--⑤⑥|
3
口口④⑧ |①-②-|
①⑤口口 |③-④-|
口口⑥② |⑤-⑥-|
⑦③口口 |⑦-⑧-|
4
口①⑧口 |①-②-|
⑤口口④ |③-④-|
③口口⑥ |⑤-⑥-|
口⑦②口 |⑦-⑧-|
5
口口口口 |①---|
口①口② |--②③|
口③⑥口 |④---|
⑤口口④ |--⑤⑥|
6
⑤口口② |①-②③|
①③口口 |④-⑤-|
口口口④
口口口口

口⑨口⑩
口口口⑧
口⑦口口 |⑥-⑦⑧|
口口口⑥ |⑨-⑩-|
7
口口口口 |①---|
口口口口 |----|
①口口① |----|
口口口口 |----|
8
①口口口 |----|
口口口口 |----|
口口口口 |----|
口口口口 |--①-|

BPM: 125
9
口口①⑧ |①-②-|
口③口② |③-④-|
④口⑤口 |⑤-⑥-|
口⑥口⑦ |⑦-⑧-|
10
⑧①口口 |①-②-|
②口③口 |③-④-|
口⑤口④ |⑤-⑥-|
⑥口⑦口 |⑦-⑧-|

BPM: 126
11
口口①口 |①-②-|
口③⑨② |③-④-|
④⑧⑤口 |⑤-⑥-|
口⑥口⑦ |⑦-⑧⑨|
12
⑥①②⑧ |①---|
③口口口 |-②③④|
口口口④ |⑤-⑥-|
口⑤口⑦ |⑦-⑧-|

BPM: 127
13
⑧①口口 |①-②-|
②口③口 |③-④-|
口⑤口④ |⑤-⑥-|
⑦口⑥口 |⑦-⑧-|
14
口口①⑧ |①-②-|
口③口② |③-④-|
④口⑤口 |⑤-⑥-|
口⑦口⑥ |⑦-⑧-|

BPM: 128
15
口①口口 |①-②-|
②⑨③口 |③-④-|
口⑤⑧④ |⑤-⑥-|
⑦口⑥口 |⑦-⑧⑨|
16
⑧②①⑥ |①---|
口口口③ |-②③④|
④口口口 |⑤-⑥-|
⑦口⑤口 |⑦-⑧-|

BPM: 131
17
口口口口 |①-②-|
口①口② |③-④-|
④口③口
口口口口

口⑥口口
口⑧口⑦
口口口口 |⑤-⑥-|
口⑤口口 |⑦-⑧-|

BPM: 132
18
口口口⑧ |①-②-|
口口④口 |③-④-|
②⑤①⑥ |⑤-⑥-|
⑦口③口 |⑦-⑧-|

BPM: 133
19
口口口口 |①-②-|
②口①口 |③-④-|
口③口④
口口口口

口口⑥口
⑦口⑧口
口口口口 |⑤-⑥-|
口口⑤口 |⑦-⑧-|

BPM: 134
20
⑧口口口 |①-②-|
口④口口 |③-④-|
⑥①⑤② |⑤-⑥-|
口③口⑦ |⑦-⑧-|

BPM: 135
21
口口口口 |①-②-|
口①口② |③-④-|
④口③口
口口口口

口⑥口口
口⑧口⑦
口口口口 |⑤-⑥-|
口⑤口口 |⑦-⑧-|

BPM: 136
22
口口口⑧ |①-②-|
口口④口 |③-④-|
②⑤①⑥ |⑤-⑥-|
⑦口③口 |⑦-⑧-|

BPM: 137
23
口口口口 |①-②-|
②口①口 |③-④-|
口③口④
口口口口

BPM: 138
口口⑥口
⑦口⑧口
口口口口 |⑤-⑥-|
口口⑤口 |⑦-⑧-|

BPM: 139
24
口口口口 |①-②-|
口④口口 |③-④-|
口①口②
口③口口

BPM: 140
⑥口口口
口口口口
口口⑤口 |⑤---|
口口口口 |--⑥-|

BPM: 141
25
口口口口 |①-②-|
口口口③ |③-④-|
①口口口
④口口②

BPM: 142
口口口⑦
口口口口
口口口口 |⑤-⑥-|
口⑤⑥口 |--⑦-|

BPM: 143
26
口②①口 |①-②-|
口③口口 |--③-|
口口口口
口口口口

BPM: 144
口口口口
口口口⑥
⑤口④口 |④-⑤-|
⑦口口口 |⑥-⑦-|

BPM: 145
27
口③口② |①-②-|
口口口口 |③-④-|
口口口口
口口①④

BPM: 146
⑦口口口
口口口⑥
口口口⑤ |⑤-⑥-|
口口口口 |--⑦-|

BPM: 147
28
口口口口 |①-②-|
①口口口 |--③-|
②③口口
口口口口

BPM: 148
⑤口口口
口口④口
口口口口 |④---|
口口口口 |--⑤-|

BPM: 149
29
口口①口 |①-②-|
口③口② |③-④-|
④口口口
口口口口

BPM: 150
口口口⑧
口口口口
口口⑤口 |⑤-⑥-|
口⑥口⑦ |⑦-⑧-|

BPM: 151
30
口①口口 |①-②-|
②口③口 |③-④-|
口口口④
口口口口

BPM: 152
⑧口口口
口口口口
口⑤口口 |⑤-⑥-|
⑥口⑦口 |⑦-⑧-|

BPM: 153
31
口口①口 |①-②-|
口③口② |③-④-|
④口口口
口口口口

BPM: 154
口口口口
口口⑨口
口⑧⑤口 |⑤-⑥-|
口⑥口⑦ |⑦-⑧⑨|

BPM: 155
32
口①②口 |①---|
③口口口 |-②③④|
口口口④
口口口口

BPM: 156
⑥口口⑧
口口口口
口口口口 |⑤-⑥-|
口⑤口⑦ |⑦-⑧-|

BPM: 157
33
口①口口 |①-②-|
②口③口 |③-④-|
口口口④
口口口口

BPM: 158
⑧口口口
口口口口
口⑤口口 |⑤-⑥-|
⑦口⑥口 |⑦-⑧-|

BPM: 159
34
口口①口 |①-②-|
口③口② |③-④-|
④口口口
口口口口

BPM: 160
口口口⑧
口口口口
口口⑤口 |⑤-⑥-|
口⑦口⑥ |⑦-⑧-|

BPM: 161
35
口①口口 |①-②-|
②口③口 |③-④-|
口口口④
口口口口

BPM: 162
口口口口
口⑨口口
口⑤⑧口 |⑤-⑥-|
⑦口⑥口 |⑦-⑧⑨|

BPM: 163
36
口②①口 |①---|
口口口③ |-②③④|
④口口口
口口口口

BPM: 164
口口口口
口口口口
口⑧⑦口 |⑤-⑥-|
口⑥⑤口 |⑦-⑧-|

BPM: 165
37
口④③口 |①-②-|
口②①口 |③-④-|
口口口口
口口口口

BPM: 166
⑤口口⑤
⑥口口⑥
口口口口 |⑤---|
口口口口 |⑥---|

BPM: 167
38
口口口口 |①---|
口口口口 |②---|
①口口①
②口口②

BPM: 168
口④③口
口⑥⑤口
口口口口 |③-④-|
口口口口 |⑤-⑥-|

BPM: 169
39
口口口口 |①-②-|
口口口口 |③-④-|
口②①口
口④③口

BPM: 170
口口口口
口口口口
⑥口口⑥ |⑤---|
⑤口口⑤ |⑥---|

BPM: 171
40
②口口② |①---|
①口口① |②---|
口口口口
口口口口

BPM: 172
口③③口
口口口口
口口口口 |③---|
口④④口 |④---|

BPM: 173
41
口口口口 |①---|
①口口① |②---|
②口口②
口口口口

BPM: 174
口口口口
口③③口
口④④口 |③---|
口口口口 |④---|

BPM: 175
42
①口口① |①---|
口口口口 |②---|
口口口口
②口口②

BPM: 176
口③④口
口口口⑤
口口口⑥ |③-④-|
口口口口 |⑤-⑥-|

BPM: 177
43
口口口口 |①-②-|
口口④口 |③-④-|
口③口口
②口①口

BPM: 178
口⑥⑤口
⑦口口口
⑧口口口 |⑤-⑥-|
口口口口 |⑦-⑧-|

BPM: 179
44
口口口口 |①-②-|
口④口口 |③-④-|
口口③口
口①口②

BPM: 180
口⑤⑥口
口口口⑦
口口口⑧ |⑤-⑥-|
口口口口 |⑦-⑧-|

BPM: 181
45
口口口口 |①-②-|
口口④口 |③-④-|
口③口口
②口①口

BPM: 182
口⑥⑤口
⑦口口口
⑧口口口 |⑤-⑥-|
口口口口 |⑦-⑧-|

BPM: 183
46
口口口口 |①-②-|
口④口口 |③-④-|
口口③口
口①口②

BPM: 184
⑤⑥口口
口口⑧⑦
口口口口 |⑤-⑥-|
口口口口 |⑦-⑧-|

BPM: 185
47
口口口口 |①-②-|
口口口口 |③-④-|
①②口口
口口④③

BPM: 186
口口⑥⑤
⑦⑧口口
口口口口 |⑤-⑥-|
口口口口 |⑦-⑧-|

BPM: 187
48
口口口口 |①-②-|
口口口口 |③-④-|
口口②①
③④口口

BPM: 188
口⑤⑥口
口⑦⑧口
口口口口 |⑤-⑥-|
口口口口 |⑦-⑧-|

BPM: 189
49
口口口口 |①-②-|
口口口口 |③-④-|
口①②口
口③④口

BPM: 190
口⑤⑤口
口口口口
⑥口口⑥ |⑤---|
口口口口 |⑥---|
50
③口口③ |①---|
①口口① |②---|
口④④口 |③---|
口②②口 |④---|
51
口③③口 |①---|
口①①口 |②---|
口口口口 |③---|
②口口② |----|
52
口口口口 |①---|
口①①口 |----|
口②②口 |②---|
口口口口 |----|
53
②口口② |①---|
口口口口 |----|
口口口口 |②---|
口①①口 |----|
54
口口口口 |①---|
①口口① |----|
②口口② |②---|
口口口口 |----|
55
口口口口 |①---|
口②③口 |----|
口④⑤口 |②-③-|
①口口① |④-⑤-|
56
⑤①口⑥ |①-②-|
口口口② |③-④-|
③口口口 |⑤-⑥-|
⑦口④⑧ |⑦-⑧-|
57
口口②口 |①-②-|
①⑦⑤口 |③-④-|
口⑤⑥④ |⑤---|
口③口口 |--⑥⑦|
58
②⑥①口 |①-②-|
口口口③ |③-④-|
④口口口 |⑤---|
口口口⑤ |---⑥|
59
口口口口 |①---|
口口①口 |---②|
口②口口 |③---|
口口③口 |----|


不确定度: 0

最終更新:2012年11月11日 16:53