SWEET ANGEL
古川もとあき

BASIC

Level: 4
BPM: 150
Notes: 210

1
口口口口 |----|
口口口口 |----|
口口口口 |----|
口口口口 |----|
2
口口口口 |①---|
口口口口 |--②-|
口口口口 |----|
②③口① |③---|
3
口口口口 |①---|
口口口口 |--②-|
①口③② |----|
口口口口 |③---|
4
口口口口 |①---|
②③口① |--②-|
口口口口 |----|
口口口口 |③---|
5
①口③② |①---|
口口口口 |--②-|
口口口口 |----|
口口口口 |③---|
6
口口口口 |①---|
口口口口 |--②-|
口口口口 |----|
②③口① |③---|
7
口口口口 |①---|
口口口口 |--②-|
①口③② |----|
口口口口 |③---|
8
口口口口 |①---|
②③口① |--②-|
口口口口 |----|
口口口口 |③---|
9
①口③② |①---|
口口口口 |--②-|
口口口口 |----|
口口口口 |③---|
10
口口口口 |①---|
口口口口 |----|
口口②口 |----|
口①口口 |②---|
11
口口口口 |①---|
③口④② |②---|
口①口口 |③---|
口口口口 |④---|
12
口②③口 |①---|
口①口口 |--②-|
口口口口 |----|
口口口口 |③---|
13
口口口口 |①---|
口口口口 |--②-|
②口口① |----|
口口口口 |----|
14
口口口口 |①---|
口口口口 |--②-|
②口③口 |----|
口①口口 |③---|
15
口口口口 |①---|
口口③口 |--②-|
口①口② |----|
口口口口 |③---|
16
口②③口 |①---|
口①口口 |--②-|
口口口口 |----|
口口口口 |③---|
17
口口口口 |①---|
②口口② |----|
①口口① |②---|
口口口口 |----|
18
口②②口 |①---|
口①①口 |----|
口口口口 |②---|
口口口口 |----|
19
口口口口 |①---|
②口口② |----|
①口口① |②---|
口口口口 |----|
20
口口口口 |①---|
口口口口 |②---|
口③④口 |③---|
口①②口 |④---|
21
口③④口 |①---|
口①②口 |②---|
口口口口 |③---|
口口口口 |④---|
22
①口口② |①---|
③口口④ |②---|
口口口口 |③---|
口口口口 |④---|
23
口口口口 |①---|
口口口口 |②---|
①口口② |③---|
③口口④ |④---|
24
口口口口 |①---|
口口口口 |②---|
口③④口 |③---|
口①②口 |④---|
25
②口口② |①---|
①口口① |----|
口口口口 |②---|
口口口口 |----|
26
口口口口 |①---|
口口口口 |②---|
①口口④ |③---|
口②③口 |④---|
27
口③②口 |①---|
④口口① |②---|
口口口口 |③---|
口口口口 |④---|
28
口口口口 |①---|
口①②口 |②---|
口③④口 |③---|
口口口口 |④---|
29
口口口口 |①---|
②口口② |----|
口口口口 |②---|
①口口① |----|
30
口口口口 |①---|
口口口口 |②---|
①口口④ |③---|
口②③口 |④---|
31
口③②口 |①---|
④口口① |②---|
口口口口 |③---|
口口口口 |④---|
32
口口口口 |①---|
口①②口 |②---|
口③④口 |③---|
口口口口 |④---|
33
口口口口 |①---|
②口口② |----|
口口口口 |②---|
①口口① |----|
34
口口口口 |①---|
口口口口 |②---|
口②③口 |③---|
①口口④ |④---|
35
口口④③ |①---|
口口口② |②---|
口口口① |③---|
口口口口 |④---|
36
②①口口 |①---|
③口口口 |②---|
④口口口 |③---|
口口口口 |④---|
37
口口口口 |①---|
口②②口 |----|
口口口口 |②---|
口①①口 |----|
38
口口口口 |①---|
口口口口 |②---|
口②③口 |③---|
①口口④ |④---|
39
口口④③ |①---|
口口口② |②---|
口口口① |③---|
口口口口 |④---|
40
②①口口 |①---|
③口口口 |②---|
④口口口 |③---|
口口口口 |④---|
41
口口口口 |①---|
口②②口 |----|
口口口口 |②---|
口①①口 |----|
42
口口口口 |①---|
口口口口 |②---|
口口口口 |③---|
④③②① |④---|
43
③④口口 |①---|
②口口口 |②---|
①口口口 |③---|
口口口口 |④---|
44
口口①② |①---|
口口口③ |②---|
口口口④ |③---|
口口口口 |④---|
45
口口口口 |①---|
口③④口 |②---|
口②①口 |③---|
口口口口 |④---|
46
口口口口 |①---|
口③④口 |②---|
口②①口 |③---|
口口口口 |④---|
47
口口口口 |①---|
口口口① |②---|
口口口② |③---|
口口④③ |④---|
48
口口口口 |①---|
④口口口 |②---|
③口口口 |③---|
②①口口 |④---|
49
①②③④ |①---|
口口口口 |②---|
口口口口 |③---|
口口口口 |④---|
50
口口口口 |①---|
口口口口 |--②-|
口口口口 |----|
②③口① |③---|
51
口口口口 |①---|
口口口口 |--②-|
①口③② |----|
口口口口 |③---|
52
口口口口 |①---|
②③口① |--②-|
口口口口 |----|
口口口口 |③---|
53
①口③② |①---|
口口口口 |--②-|
口口口口 |----|
口口口口 |③---|
54
口口口口 |①---|
口口口口 |--②-|
口口口口 |----|
②③口① |③---|
55
口口口口 |①---|
口口口口 |--②-|
①口③② |----|
口口口口 |③---|
56
口口口口 |①---|
②③口① |--②-|
口口口口 |----|
口口口口 |③---|
57
①口③② |①---|
口口口口 |--②-|
口口口口 |----|
口口口口 |③---|
58
口口口口 |①---|
口②口③ |--②-|
口口①口 |----|
口口口口 |③---|
59
口②①口 |①---|
口口口口 |--②-|
口口口口 |----|
口口口口 |----|
60
口口口口 |①---|
口口口口 |--②-|
口③口口 |----|
口①②口 |③---|
61
口口口口 |①---|
①口口① |----|
口口口口 |----|
口口口口 |----|


不确定度: 0

最終更新:2012年11月11日 16:52