SWEET ANGEL
古川もとあき

ADVANCED

Level: 6
BPM: 150
Notes: 370

1
口口口口 |----|
口口口口 |----|
口口口口 |----|
口口口口 |----|
2
口口口口 |①---|
口口口口 |--②-|
②③③② |----|
口①①口 |③---|
3
③②②③ |①---|
①口口① |--②-|
口口口口 |----|
口口口口 |③---|
4
口口口口 |①---|
口①①口 |--②-|
口③③口 |----|
②口口② |③---|
5
③口口③ |①---|
①②②① |--②-|
口口口口 |----|
口口口口 |③---|
6
口口口口 |①---|
口口口口 |--②-|
②③③② |----|
口①①口 |③---|
7
③②②③ |①---|
①口口① |--②-|
口口口口 |----|
口口口口 |③---|
8
口口口口 |①---|
口①①口 |--②-|
口③③口 |----|
②口口② |③---|
9
③口口③ |①---|
①②②① |--②-|
口口口口 |----|
口口口口 |③---|
10
口口口口 |①---|
口③④口 |----|
②口①口 |--②-|
口口口口 |③-④-|
11
口口口口 |①---|
④口口④ |②-③-|
口口口① |--④-|
口②③口 |----|
12
口①①口 |①---|
口口口口 |--②-|
③口口③ |----|
口②②口 |③---|
13
口口口口 |①---|
②①①② |--②-|
口口口口 |----|
口口口口 |----|
14
口口口口 |①---|
②③③② |--②-|
口①①口 |----|
口口口口 |③---|
15
口口口口 |①---|
③口口③ |--②-|
①口口① |----|
口②②口 |③---|
16
口①①口 |①---|
口口口口 |--②-|
③口口③ |----|
口②②口 |③---|
17
口②②口 |①---|
口①①口 |----|
口口口口 |②---|
口口口口 |----|
18
口口口口 |--①-|
口口口口 |②-③-|
口⑤⑥⑦ |④-⑤-|
①②③④ |⑥-⑦-|
19
口⑤⑥⑦ |--①-|
①②③④ |②-③-|
口口口口 |④-⑤-|
口口口口 |⑥-⑦-|
20
口⑥口⑧ |①-②-|
⑤口⑦口 |③-④-|
④口②口 |⑤-⑥-|
口③口① |⑦-⑧-|
21
①口②口 |①-②-|
口③口④ |③-④-|
⑤口⑥口 |⑤-⑥-|
口⑦口⑧ |⑦-⑧-|
22
口⑦口⑧ |①-②-|
⑤口⑥口 |③-④-|
口③口④ |⑤-⑥-|
①口②口 |⑦-⑧-|
23
口口口口 |①-②-|
③⑦⑥② |③-④-|
①⑤⑧④ |⑤-⑥-|
口口口口 |⑦-⑧-|
24
①②③④ |①-②-|
口口口口 |③-④-|
口口口口 |⑤-⑥-|
⑧⑦⑥⑤ |⑦-⑧-|
25
④③口口 |①--②|
口口②① |-③④-|
⑤⑥口口 |⑤--⑥|
口口⑦⑧ |-⑦⑧-|
26
⑤⑥③④ |①-②-|
①②⑦口 |③-④-|
口口口口 |--⑤-|
口口口口 |⑥-⑦-|
27
口口口口 |①---|
口口口① |②-③-|
④口口⑤ |--④-|
口②③口 |⑤---|
28
口口口口 |①-②-|
口口口口 |③-④-|
④③⑥⑤ |--⑤-|
口⑦②① |⑥-⑦-|
29
④口口口 |①---|
②口口③ |②---|
口口口口 |③---|
①口口口 |④---|
30
⑤②⑦④ |①-②-|
①⑥③口 |③-④-|
口口口口 |--⑤-|
口口口口 |⑥-⑦-|
31
口口口口 |①---|
口口口① |②-③-|
口②③口 |--④-|
口④口口 |----|
32
口口口口 |①---|
④③②① |②---|
口口口口 |③---|
口口口口 |④---|
33
口口口口 |①---|
口口口口 |----|
口①①口 |②---|
口②②口 |----|
34
口④③口 |①---|
①口口② |--②-|
口口口口 |--③-|
口口口口 |④---|
35
口口口口 |①---|
口口口口 |②-③-|
口口⑤④ |--④-|
①口②③ |⑤---|
36
⑤⑥③④ |①-②-|
①②⑦口 |③-④-|
口口口口 |--⑤-|
口口口口 |⑥-⑦-|
37
③口口③ |①---|
口④④① |②---|
②口口② |③---|
口口口口 |④---|
38
口口口口 |①-②-|
口口口口 |③-④-|
⑤⑥③④ |--⑤-|
①②⑦口 |⑥-⑦-|
39
口④④口 |①---|
②口口③ |②-③-|
口口口口 |--④-|
口口口① |----|
40
①口口① |①---|
②口口② |②---|
③口口③ |③---|
④口口④ |④---|
41
口口口口 |①---|
口②②口 |----|
口①①口 |②---|
口口口口 |----|
42
口口口口 |①-②-|
口口口口 |③-④-|
⑤⑥⑦⑧ |⑤-⑥-|
①②③④ |⑦-⑧-|
43
⑧⑦⑥⑤ |①-②-|
④③②① |③-④-|
口口口口 |⑤-⑥-|
口口口口 |⑦-⑧-|
44
口口口口 |①-②-|
口口口口 |③-④-|
⑤⑥⑦⑧ |⑤-⑥-|
④③②① |⑦-⑧-|
45
⑧⑦⑥⑤ |①-②-|
④③②① |③-④-|
口口口口 |⑤-⑥-|
口口口口 |⑦-⑧-|
46
口口口口 |①-②-|
口口口口 |③-④-|
⑤⑥⑦⑧ |⑤-⑥-|
①②③④ |⑦-⑧-|
47
⑧⑦⑥⑤ |①-②-|
④③②① |③-④-|
口口口口 |⑤-⑥-|
口口口口 |⑦-⑧-|
48
口口口口 |①-②-|
口口口口 |③-④-|
⑤⑥⑦⑧ |⑤-⑥-|
④③②① |⑦-⑧-|
49
⑧⑦⑥⑤ |①-②-|
④③②① |③-④-|
口口口口 |⑤-⑥-|
口口口口 |⑦-⑧-|
50
口口口口 |①---|
口口口口 |--②-|
②③③② |----|
口①①口 |③---|
51
③②②③ |①---|
①口口① |--②-|
口口口口 |----|
口口口口 |③---|
52
口口口口 |①---|
口①①口 |--②-|
口③③口 |----|
②口口② |③---|
53
③口口③ |①---|
①②②① |--②-|
口口口口 |----|
口口口口 |③---|
54
口口口口 |①---|
口口口口 |--②-|
②③③② |----|
口①①口 |③---|
55
③②②③ |①---|
①口口① |--②-|
口口口口 |----|
口口口口 |③---|
56
口口口口 |①---|
口①①口 |--②-|
口③③口 |----|
②口口② |③---|
57
②口口② |①---|
①口口① |--②-|
口口口口 |----|
口口口口 |----|
58
口口口口 |①---|
口口口口 |--②-|
②③③② |----|
口①①口 |③---|
59
②口口② |①---|
①口口① |--②-|
口口口口 |----|
口口口口 |----|
60
口口口口 |①---|
口③③口 |--②-|
口②②口 |----|
口①①口 |③---|
61
①①①① |①---|
口口口口 |----|
口口口口 |----|
口口口口 |----|


不确定度: 0

最終更新:2012年11月11日 16:52